<?xml version="1.0" standalone="no"?>
<!DOCTYPE svg PUBLIC "-//W3C//DTD SVG 1.1//EN" "http://www.w3.org/Graphics/SVG/1.1/DTD/svg11.dtd" >
<svg xmlns="http://www.w3.org/2000/svg">
<metadata>Generated by IcoMoon</metadata>
<defs>
<font id="icomoon" horiz-adv-x="1024">
<font-face units-per-em="1024" ascent="960" descent="-64" />
<missing-glyph horiz-adv-x="1024" />
<glyph unicode="&#x20;" d="" horiz-adv-x="512" />
<glyph unicode="&#xe600;" d="M574.925 397.875c-81.050-81.101-174.95-158.618-212.070-121.446-53.146 53.094-85.862 99.379-203.008 5.274s-27.187-156.877 24.32-208.384c59.392-59.341 280.781-3.123 499.661 215.706 218.778 218.829 275.098 440.269 215.654 499.661-51.456 51.507-114.176 141.414-208.333 24.32s-47.872-149.862 5.274-203.008c37.018-37.171-40.448-131.021-121.498-212.122z" />
<glyph unicode="&#xe601;" d="M710.502 972.8h-397.005c-57.498 0-104.499-47.002-104.499-104.499v-815.002c0-57.446 47.002-104.499 104.499-104.499h397.005c57.498 0 104.499 47.053 104.499 104.499v815.002c0 57.498-47.002 104.499-104.499 104.499zM512-9.421c-40.346 0-73.114 23.398-73.114 52.275s32.768 52.275 73.114 52.275c40.397 0 73.114-23.398 73.114-52.275s-32.717-52.275-73.114-52.275zM731.392 147.354h-438.835v689.613h438.835v-689.613z" />
<glyph unicode="&#xe602;" d="M788.582 235.366l-134.451 385.843c-37.018 106.189-151.91 164.864-260.762 135.885l-101.171 196.301c-9.165 17.766-30.618 24.576-47.974 15.206-17.357-9.421-24.013-31.437-14.848-49.203l98.765-191.642c-78.694-52.224-119.603-151.194-93.696-244.378l109.568-394.035c30.822-110.746 157.696-167.168 285.235-128.154 125.901 44.186 197.171 165.734 159.334 274.176zM455.629 515.942c-37.325-12.237-77.363 8.806-89.344 47.155-11.981 38.298 8.602 79.309 45.978 91.546 37.376 12.288 77.414-8.806 89.395-47.104s-8.602-79.309-46.029-91.597z" />
<glyph unicode="&#xe603;" d="M435.2 921.6h-46.029c-11.315 0-20.531-9.216-20.531-20.48v-194.56h-181.043c-8.448 0-18.944-1.946-28.979-5.018-10.138-3.123-19.814-7.424-26.726-12.134l-121.6-83.456c-6.861-4.71-10.291-10.906-10.291-17.152s3.43-12.442 10.291-17.152l121.6-83.456c6.912-4.71 16.589-9.011 26.726-12.134 10.035-3.072 20.531-5.018 28.979-5.018h181.043v-450.56c0-11.315 9.216-20.48 20.48-20.48h46.080c11.315 0 20.48 9.216 20.48 20.48v880.64c0 11.264-9.165 20.48-20.48 20.48zM1013.709 708.301l-121.6 83.456c-6.861 4.71-16.538 9.011-26.675 12.134-10.086 3.123-20.582 5.069-29.030 5.069h-350.003l41.011-235.52h308.992c8.448 0 18.944 1.946 29.030 5.018s19.814 7.424 26.675 12.083l121.6 83.456c6.912 4.762 10.291 10.957 10.291 17.203s-3.379 12.442-10.291 17.101z" />
<glyph unicode="&#xe604;" d="M81.613 702.157c24.986-13.466 371.149-199.373 384.051-206.285 12.851-6.912 29.542-10.24 46.336-10.24 16.845 0 33.536 3.328 46.387 10.291 12.902 6.912 359.014 192.819 384 206.285 25.037 13.414 48.691 55.552 2.765 55.552h-866.253c-45.926 0-22.323-42.138 2.714-55.603zM952.986 599.757c-28.416-14.848-377.19-197.171-394.598-206.285s-29.542-10.291-46.387-10.291c-16.794 0-28.928 1.178-46.336 10.291s-366.234 191.488-394.598 206.285c-20.019 10.445-19.866-1.792-19.866-11.213 0-9.421 0-375.552 0-375.552 0-21.504 28.621-49.152 50.79-49.152h820.070c22.221 0 50.739 27.648 50.739 49.101 0 0 0 366.131 0 375.552 0 9.472 0.205 21.709-19.814 11.264z" />
<glyph unicode="&#xe605;" d="M957.133 837.888c-17.562-6.195-886.835-312.474-903.936-318.515-14.541-5.12-17.818-17.664-0.512-24.525 20.531-8.243 194.355-77.875 194.355-77.875h-0.051l115.251-46.182c0 0 554.854 407.501 562.381 412.979 7.526 5.53 16.282-4.864 10.803-10.803-5.478-5.99-402.995-435.917-402.995-435.917-0.051 0-0.051 0-0.051 0l-23.142-25.805 30.669-16.486c0 0 238.080-128.154 255.027-137.318 14.848-7.987 34.202-1.331 38.502 17.152 5.069 21.811 145.664 627.814 148.787 641.229 4.096 17.562-7.475 28.262-25.088 22.067zM361.216 94.106c0-12.646 7.117-16.128 16.947-7.219 12.8 11.674 145.869 131.072 145.869 131.072l-162.816 84.275v-208.128z" />
<glyph unicode="&#xe606;" d="M847.923 796.774c-73.83 73.882-129.28 62.822-129.28 62.822l-554.291-554.291-51.712-243.866 243.866 51.712 554.24 554.24c0 0 11.11 55.45-62.822 129.382zM341.965 142.49l-83.098-17.92c-8.038 15.002-17.715 30.003-35.379 47.718-17.664 17.664-32.717 27.29-47.718 35.328l17.971 83.149 24.013 24.013c0 0 45.261-0.922 96.307-51.968 51.098-51.098 52.019-96.358 52.019-96.358l-24.115-23.962z" />
<glyph unicode="&#xe608;" d="M254.003-51.2c-68.403 0-132.454 28.979-178.739 75.315-89.6 89.6-114.637 246.067 11.008 371.712 73.677 73.574 368.589 368.486 515.789 515.686 52.275 52.275 118.733 72.448 182.426 55.347 62.515-16.691 113.818-67.942 130.56-130.509 17.050-63.693-3.174-130.202-55.398-182.426l-493.158-493.21c-28.16-28.16-59.955-44.851-91.955-48.179-31.642-3.328-61.85 6.861-83.046 28.006-38.4 38.349-43.827 110.541 19.968 174.285l346.368 346.47c14.234 14.182 37.325 14.182 51.558 0 14.234-14.234 14.234-37.325 0-51.558l-346.419-346.419c-29.952-29.952-32.717-58.573-19.968-71.322 5.581-5.53 14.080-8.090 23.859-7.066 15.002 1.587 32.102 11.315 48.077 27.29l493.158 493.158c33.843 33.843 46.797 73.626 36.506 112.077-10.138 37.837-41.165 68.864-79.002 79.002-38.451 10.291-78.234-2.714-112.077-36.506-147.149-147.2-442.061-442.112-515.686-515.686-96.051-96.051-73.062-206.592-11.059-268.646 62.054-62.003 172.595-85.043 268.698 11.059l515.738 515.686c14.182 14.234 37.325 14.234 51.507 0 14.234-14.234 14.234-37.325 0-51.507l-515.738-515.738c-60.774-60.826-128.768-86.323-192.973-86.323z" />
<glyph unicode="&#xe609;" d="M990.157 484.198c-20.122 21.35-116.941 116.326-161.229 159.693-13.619 13.261-33.075 21.709-53.402 21.709-20.275 0-263.475 0-263.475 0s-243.2 0-263.526 0-39.834-8.499-53.402-21.76c-44.288-43.366-141.21-138.342-161.28-159.693-25.037-26.624-38.758-47.872-32.205-74.189l28.723-157.389c6.502-26.317 35.328-47.872 64.051-47.872h835.174c28.723 0 57.549 21.555 64.051 47.872l28.774 157.389c6.502 26.317-7.219 47.616-32.256 74.24zM719.258 450.099c-5.222 0-9.882-2.662-12.237-6.81l-41.83-104.243h-306.33l-41.83 104.243c-2.304 4.147-7.066 6.81-12.237 6.81h-181.504l104.499 118.221h568.525l104.448-118.221h-181.504z" />
<glyph unicode="&#xe60a;" d="M972.8 112.64c0 0-102.4 498.33-551.68 498.33v197.99l-369.92-330.496 369.92-342.579v223.13c243.866 0 424.55-21.606 551.68-246.374z" />
<glyph unicode="&#xe60b;" d="M369.92 671.744v137.216l-369.92-330.496 369.92-342.579v142.285l-216.32 200.294 216.32 193.28zM625.92 611.021v197.939l-369.92-330.496 369.92-342.579v223.13c168.602 0 270.95-21.606 398.080-246.374 0 0-18.79 498.381-398.080 498.381z" />
<glyph unicode="&#xe60c;" d="M602.88 359.014v-223.078l369.92 342.528-369.92 330.496v-197.939c-449.28 0-551.68-498.381-551.68-498.381 127.13 224.768 307.814 246.374 551.68 246.374z" />
<glyph unicode="&#xe60d;" d="M758.784 233.062c-126.208 45.978-166.554 84.787-166.554 167.885 0 49.869 38.554 33.587 55.45 124.928 7.014 37.888 41.062 0.614 47.616 87.091 0 34.458-18.586 43.059-18.586 43.059s9.472 51.046 13.158 90.266c4.506 48.947-28.262 175.309-203.469 175.309-175.155 0-208.026-126.362-203.418-175.309 3.686-39.219 13.158-90.266 13.158-90.266s-18.637-8.55-18.637-43.059c6.502-86.477 40.55-49.203 47.565-87.091 16.947-91.341 55.501-75.059 55.501-124.928 0-83.098-40.346-121.907-166.554-167.885-126.669-46.080-208.896-93.133-208.896-125.235 0-32.051 0-107.776 0-107.776h962.56c0 0 0 75.725 0 107.776s-82.278 79.104-208.896 125.235z" />
<glyph unicode="&#xe60e;" d="M1024 10.24c0 0-1.997 193.894-13.875 213.965-17.664 29.952-58.675 50.483-134.861 82.33-75.93 31.744-100.25 58.573-100.25 115.866 0 34.458 23.194 23.194 33.382 86.221 4.198 26.163 24.678 0.461 28.621 60.109 0 23.808-11.162 29.747-11.162 29.747s5.632 35.226 7.885 62.31c2.765 33.792-17.050 120.986-122.47 120.986s-125.133-87.245-122.419-120.986c2.202-27.085 7.834-62.31 7.834-62.31s-11.162-5.939-11.162-29.747c3.942-59.699 24.422-33.997 28.672-60.109 10.138-63.027 33.331-51.763 33.331-86.221 0-38.963-11.264-63.846-42.342-85.709 165.888-83.046 188.16-99.994 188.16-174.234v-152.218h230.656zM523.469 277.76c-101.325 42.291-133.632 78.029-133.632 154.47 0 45.875 30.925 30.925 44.493 114.995 5.581 34.867 32.973 0.563 38.144 80.128 0 31.744-14.899 39.629-14.899 39.629s7.578 46.95 10.547 83.098c3.686 44.954-22.733 161.28-163.277 161.28-140.544 0-166.912-116.275-163.226-161.28 2.97-36.147 10.496-83.098 10.496-83.098s-14.848-7.885-14.848-39.629c5.274-79.616 32.563-45.312 38.195-80.128 13.568-84.070 44.493-69.069 44.493-114.995 0-76.442-32.41-112.179-133.632-154.47-30.874-12.902-86.323-32.922-86.323-80.947v-186.573h711.373c0 0 0 110.336 0 139.827 0 43.878-86.374 85.197-187.904 127.693z" />
<glyph unicode="&#xe60f;" d="M633.702 233.062c-127.539 45.978-168.294 84.787-168.294 167.885 0 49.869 38.963 33.587 56.064 124.928 7.117 37.888 41.523 0.614 48.026 87.091 0 34.458-18.739 43.059-18.739 43.059s9.574 51.046 13.261 90.266c4.608 48.947-28.57 175.309-205.619 175.309s-210.227-126.362-205.619-175.309c3.738-39.27 13.312-90.266 13.312-90.266s-18.79-8.55-18.79-43.059c6.605-86.477 41.011-49.203 48.026-87.091 17.152-91.341 56.115-75.059 56.115-124.928 0-83.098-40.806-121.907-168.346-167.885-15.36-5.478-51.968-14.080-83.098-27.546v-205.517h819.2c0 0 0 75.725 0 107.776s-57.498 79.155-185.498 125.286zM870.4 512v153.6h-102.4v-153.6h-153.6v-102.4h153.6v-153.6h102.4v153.6h153.6v102.4h-153.6z" />
<glyph unicode="&#xe610;" d="M921.6 870.4h-819.2c-56.32 0-102.4-46.080-102.4-102.4v-614.4c0-56.32 46.080-102.4 102.4-102.4h819.2c56.371 0 102.4 46.080 102.4 102.4v614.4c0 56.32-46.029 102.4-102.4 102.4zM921.6 153.6h-819.2v614.4h819.2v-614.4zM460.8 353.28h-256v-92.16h256v92.16zM460.8 506.88h-256v-92.16h256v92.16zM460.8 660.48h-256v-92.16h256v92.16zM814.080 332.8c0 0-87.040 22.733-87.040 67.482 0 42.598 56.371 60.518 56.371 147.558 0 70.656-21.504 112.64-92.211 112.64s-92.16-41.933-92.16-112.64c0-87.040 56.32-104.96 56.32-147.558 0-44.749-86.989-67.482-86.989-67.482-5.171 0-5.171-71.68-5.171-71.68h256c0 0 0 71.68-5.12 71.68z" />
<glyph unicode="&#xe611;" d="M768 163.84h-665.6v460.8h132.864c0 0 35.277 45.875 111.104 102.4h-295.168c-28.262 0-51.2-22.938-51.2-51.2v-563.2c0-28.314 22.938-51.2 51.2-51.2h768c28.314 0 51.2 22.886 51.2 51.2v191.795l-102.4-84.224v-56.371zM684.134 519.68v-181.76l339.866 266.291-339.866 255.949v-160.256c-412.774-0.051-412.774-408.064-412.774-408.064 116.838 191.898 188.723 227.84 412.774 227.84z" />
<glyph unicode="&#xe612;" d="M512 870.4c-141.414 0-256-114.637-256-256 0-244.429 256-563.2 256-563.2s256 318.771 256 563.2c0 141.363-114.586 256-256 256zM512 473.088c-76.339 0-138.24 61.901-138.24 138.24s61.901 138.24 138.24 138.24 138.24-61.901 138.24-138.24-61.901-138.24-138.24-138.24z" />
<glyph unicode="&#xe613;" d="M1007.77 715.571l-239.309 149.862c-10.598 6.656-23.859 6.656-34.458 0l-222.003-139.059-222.003 139.008c-10.598 6.656-23.859 6.656-34.458 0l-239.309-149.811c-10.035-6.298-16.23-17.715-16.23-29.952v-599.398c0-12.595 6.451-24.269 16.998-30.464s23.398-6.042 33.741 0.461l222.003 139.059 222.003-139.059c10.598-6.656 23.859-6.656 34.509 0l222.003 139.059 222.003-139.059c5.274-3.328 11.264-5.018 17.254-5.018 5.683 0 11.366 1.536 16.486 4.557 10.496 6.195 16.998 17.869 16.998 30.464v599.398c0 12.237-6.195 23.654-16.23 29.952zM239.258 255.846l-172.288-107.878v517.837l172.288 107.878v-517.837zM478.515 147.968l-172.288 107.878v517.837l172.288-107.878v-517.837zM717.773 255.846l-172.237-107.878v517.837l172.237 107.878v-517.837zM956.979 147.968l-172.237 107.878v517.837l172.237-107.878v-517.837z" />
<glyph unicode="&#xe614;" d="M505.446 952.269c-271.462-3.635-488.55-226.611-484.915-498.022 3.635-271.462 226.611-488.55 498.074-484.966 271.411 3.686 488.55 226.611 484.915 498.074-3.738 271.462-226.714 488.55-498.074 484.915zM517.171 72.806c-214.272-2.918-390.298 168.499-393.216 382.822-2.816 214.272 168.55 390.298 382.874 393.165 214.272 2.867 390.298-168.499 393.165-382.822s-168.499-390.246-382.822-393.165zM279.194 230.195c0 0 233.933 32.102 333.722 131.891 99.789 99.789 131.891 333.722 131.891 333.722s-233.882-32.154-333.67-131.891c-99.789-99.84-131.942-333.722-131.942-333.722zM461.568 513.434c41.933 41.984 122.112 71.731 190.925 90.214-18.483-68.659-48.384-149.453-90.061-191.078-27.853-27.853-73.011-27.853-100.864 0-27.904 27.853-27.904 73.011 0 100.864z" />
<glyph unicode="&#xe615;" d="M1009.613 958.464c-34.816 34.867-68.096 1.894-180.992-52.326-302.080-145.254-828.621-440.269-828.621-440.269l452.352-64.666 64.666-452.403c0 0 295.066 526.541 440.269 828.621 54.323 112.947 87.194 146.125 52.326 181.043zM901.12 842.035l-328.602-610.15-33.331 277.299 361.933 332.851z" />
<glyph unicode="&#xe616;" d="M512 901.12c-243.149 0-440.32-197.171-440.32-440.32 0-243.2 197.171-440.32 440.32-440.32 243.2 0 440.32 197.12 440.32 440.32 0 243.149-197.12 440.32-440.32 440.32zM547.84 104.192v197.888h-71.68v-197.888c-169.318 16.794-303.923 151.45-320.768 320.768h197.888v71.68h-197.888c16.845 169.318 151.45 303.974 320.768 320.768v-197.888h71.68v197.888c169.37-16.794 303.974-151.45 320.768-320.768h-197.888v-71.68h197.888c-16.794-169.318-151.398-303.974-320.768-320.768z" />
<glyph unicode="&#xe617;" d="M768 307.2c-35.226 0-67.482-11.93-93.389-31.846l-267.213 160.307c1.28 8.192 2.202 16.589 2.202 25.139 0 8.602-0.922 16.947-2.202 25.139l267.213 160.307c25.907-19.917 58.163-31.846 93.389-31.846 84.787 0 153.6 68.762 153.6 153.6s-68.813 153.6-153.6 153.6-153.6-68.762-153.6-153.6c0-8.55 0.922-16.947 2.253-25.139l-267.213-160.358c-25.907 19.968-58.214 31.898-93.44 31.898-84.838 0-153.6-68.762-153.6-153.6 0-84.787 68.762-153.6 153.6-153.6 35.226 0 67.533 11.93 93.44 31.846l267.213-160.307c-1.331-8.192-2.253-16.538-2.253-25.139 0-84.787 68.813-153.6 153.6-153.6s153.6 68.813 153.6 153.6-68.813 153.6-153.6 153.6z" />
<glyph unicode="&#xe618;" d="M348.16 460.8c0-90.47 73.37-163.84 163.84-163.84s163.84 73.421 163.84 163.84c0 90.47-73.37 163.84-163.84 163.84s-163.84-73.37-163.84-163.84zM231.885 522.24c28.109 128.819 142.848 225.28 280.115 225.28 79.206 0 150.835-32.102 202.701-83.968 24.013-24.013 62.925-24.013 86.938 0 23.962 24.013 23.962 62.925 0 86.886-74.138 74.086-176.538 119.962-289.638 119.962-183.398 0-338.637-120.525-390.81-286.72h-121.19v-122.88h163.84c51.149 0 63.693 41.626 68.045 61.44zM860.16 460.8c-51.098 0-63.693-41.626-68.045-61.44-28.109-128.819-142.797-225.28-280.115-225.28-79.155 0-150.835 32.051-202.701 83.968-24.013 24.013-62.925 24.013-86.886 0s-24.013-62.925 0-86.886c74.086-74.086 176.486-119.962 289.587-119.962 183.398 0 338.637 120.525 390.81 286.72h121.19v122.88h-163.84z" />
<glyph unicode="&#xe619;" d="M880.077 760.269c-85.606 78.592-224.41 78.592-310.016 0l-58.061-53.35-58.112 53.35c-85.606 78.592-224.358 78.592-309.965 0-96.307-88.371-96.307-231.629 0-320.051l368.077-337.818 368.077 337.818c96.307 88.422 96.307 231.68 0 320.051z" />
<glyph unicode="&#xe61a;" d="M880.077 760.32c-85.606 78.541-224.41 78.541-310.016 0l-58.061-53.35-58.112 53.35c-85.606 78.541-224.358 78.541-309.965 0-96.307-88.422-96.307-231.629 0-320.051l368.077-337.869 368.077 337.869c96.307 88.371 96.307 231.629 0 320.051zM825.6 492.8l-313.6-292.557-313.549 292.557c-31.642 28.979-43.878 67.174-43.878 107.52 0 40.243 7.066 73.318 38.707 102.349 27.904 25.651 65.434 39.731 105.574 39.731 40.192 0 77.722-24.371 105.626-50.022l107.52-93.491 107.52 93.491c27.904 25.651 65.382 50.022 105.574 50.022s77.722-14.080 105.677-39.731c31.59-29.030 38.605-62.106 38.707-102.349 0-40.294-12.288-78.541-43.878-107.52z" />
<glyph unicode="&#xe61b;" d="M512 911.36l122.266-344.166h328.294l-267.878-202.138 95.744-354.816-278.426 212.685-278.426-212.685 95.744 354.816-267.878 202.138h328.294z" />
<glyph unicode="&#xe61c;" d="M962.56 567.194h-328.346l-122.266 344.166-122.214-344.166h-328.294l267.827-202.138-95.744-354.816 278.426 212.685 278.426-212.685-95.744 354.816 267.93 202.138zM511.949 323.379l-154.214-128.051 63.59 182.374-145.971 117.76 180.275-5.12 56.269 206.848 56.32-206.848 180.275 5.12-145.971-117.76 63.642-182.374-154.214 128.051z" />
<glyph unicode="&#xe61d;" d="M698.778 595.814c-6.758 18.176 181.248 186.112 71.578 322.15-25.702 31.795-112.691-152.371-236.288-235.725-68.147-45.978-226.867-143.872-226.867-197.99v-350.259c0-65.075 251.597-133.99 442.829-133.99 70.093 0 171.571 439.040 171.571 508.826 0 69.99-216.064 68.762-222.822 86.989zM256 590.95c-33.638 0-153.6-20.48-153.6-159.846v-248.218c0-139.366 119.962-154.675 153.6-154.675s-51.2 29.286-51.2 115.661v326.298c0 90.522 84.838 120.781 51.2 120.781z" />
<glyph unicode="&#xe61e;" d="M325.274 325.734c6.707-18.176-181.248-186.061-71.578-322.099 25.702-31.846 112.691 152.32 236.288 235.725 68.147 45.978 226.816 143.923 226.816 197.99v350.208c0 65.126-251.546 134.042-442.778 134.042-70.093 0-171.622-439.040-171.622-508.826 0-69.99 216.115-68.762 222.874-87.040zM768 330.65c33.69 0 153.6 20.429 153.6 159.846v248.166c0 139.366-119.91 154.726-153.6 154.726-33.638 0 51.2-29.338 51.2-115.661v-326.298c0-90.522-84.838-120.781-51.2-120.781z" />
<glyph unicode="&#xe61f;" d="M296.96 348.16v317.44h-194.56c-56.32 0-102.4-46.080-102.4-102.4v-307.2c0-56.32 46.080-102.4 102.4-102.4h51.2v-153.6l153.6 153.6h256c56.32 0 102.4 46.080 102.4 102.4v93.184c-3.277-0.717-6.758-1.075-10.24-1.075h-358.4zM921.6 921.6h-460.8c-56.32 0-102.4-46.080-102.4-102.4v-409.6h358.4l153.6-153.6v153.6h51.2c56.32 0 102.4 46.080 102.4 102.4v307.2c0 56.32-46.080 102.4-102.4 102.4z" />
<glyph unicode="&#xe620;" d="M819.2 819.2h-614.4c-56.32 0-102.4-46.080-102.4-102.4v-358.4c0-56.32 46.080-102.4 102.4-102.4h204.8l204.8-153.6v153.6h204.8c56.32 0 102.4 46.080 102.4 102.4v358.4c0 56.32-46.080 102.4-102.4 102.4z" />
<glyph unicode="&#xe621;" d="M251.699 778.086c-82.432 0-149.299-68.762-149.299-153.6s66.867-153.6 149.299-153.6c149.248 0 49.766-296.96-149.299-296.96v-71.629c355.226 0 494.438 675.789 149.299 675.789zM681.728 778.086c-82.432 0-149.299-68.762-149.299-153.6s66.867-153.6 149.299-153.6c149.248 0 49.766-296.96-149.299-296.96v-71.629c355.277 0 494.49 675.789 149.299 675.789z" />
<glyph unicode="&#xe622;" d="M961.024 445.44l-410.829 411.187c-20.992 21.811-55.347 21.811-76.339 0l-410.88-411.187c-21.043-21.76-13.21-39.629 17.408-39.629h85.658v-315.802c0-22.784 0.973-41.421 42.189-41.421h199.424v316.826h208.64v-316.826h209.357c31.437 0 32.307 18.586 32.307 41.421v315.802h85.606c30.566 0 38.451 17.818 17.459 39.629z" />
<glyph unicode="&#xe623;" d="M819.2 870.4h-410.624c-56.32 0-101.376-45.056-101.376-101.376v-410.624c0-56.32 46.080-102.4 102.4-102.4h409.6c56.32 0 102.4 46.080 102.4 102.4v409.6c0 56.32-46.080 102.4-102.4 102.4zM819.2 358.4h-409.6v409.6h409.6v-409.6zM204.8 460.8h-102.4v-307.2c0-56.32 46.080-102.4 102.4-102.4h307.2v102.4h-307.2v307.2z" />
<glyph unicode="&#xe624;" d="M898.304 180.838l-193.485 193.485c29.184 47.974 45.978 104.192 45.978 164.454 0 174.899-151.603 326.502-326.554 326.502-174.899 0-316.723-141.824-316.723-316.723 0-174.95 151.552-326.554 326.502-326.554 58.163 0 112.64 15.77 159.488 43.162l194.509-194.56c19.098-19.046 49.92-19.046 68.915 0l48.282 48.23c18.995 19.046 12.083 43.008-6.912 62.003zM205.005 548.557c0 121.088 98.15 219.29 219.238 219.29 121.139 0 229.069-107.93 229.069-229.069s-98.15-219.29-219.29-219.29-229.018 107.93-229.018 229.069z" />
<glyph unicode="&#xe625;" d="M876.288 825.139c-85.811 85.76-193.485 117.146-227.789 82.842l-138.035-138.086c-20.941-20.941-39.219-91.034-30.822-161.946l-417.843-417.894c-24.781-24.73-4.71-84.992 44.851-134.554 49.562-49.613 109.875-69.632 134.605-44.902l417.843 417.843c70.963-8.397 141.056 9.882 161.946 30.822l138.086 138.086c34.304 34.304 2.918 141.978-82.842 227.789zM416.819 407.552c-19.098 19.046-12.851 56.166 13.773 82.842s63.744 32.87 82.842 13.824c18.995-19.046 12.851-56.166-13.824-82.842-26.675-26.675-63.744-32.87-82.79-13.824zM762.419 711.219c-66.458 66.458-83.149 154.112-77.261 160.051 5.939 5.939 90.163-14.234 156.672-80.691 66.458-66.458 86.374-150.886 80.64-156.621s-93.645 10.803-160.051 77.261z" />
<glyph unicode="&#xe626;" d="M76.8 614.298h870.4c29.184 0 24.422 31.13 9.882 36.198-14.541 5.069-176.282 66.202-204.442 66.202h-46.080v153.6h-389.12v-153.6h-46.080c-28.16 0-189.901-61.133-204.442-66.202s-19.354-36.198 9.882-36.198zM957.44 557.978h-890.88c-28.16 0-56.32-33.28-56.32-61.44v-179.2c0-28.16 28.16-61.44 56.32-61.44h101.478l-45.158-256h778.24l-45.158 256h101.478c28.16 0 56.32 33.28 56.32 61.44v179.2c0 28.16-28.16 61.44-56.32 61.44zM225.28 102.298l71.68 332.8h430.080l71.629-332.8h-573.389z" />
<glyph unicode="&#xe627;" d="M750.080 536.934c-116.736 251.238-177.408 346.675-368.179 342.682-67.942-1.382-51.61 49.203-103.424 30.003-51.763-19.149-7.322-47.258-60.314-90.726-148.582-121.958-134.912-234.803-65.997-503.808 29.082-113.254-69.99-118.835-30.822-228.659 28.621-80.026 239.565-113.613 462.131-30.976 222.566 82.534 363.008 246.426 334.387 326.554-39.168 109.773-118.579 49.152-167.782 154.931zM559.309 123.085c-198.707-73.728-362.086-30.362-368.998-11.11-11.878 33.229 64.154 144.179 291.379 228.506 227.226 84.326 354.048 53.043 367.309 15.923 7.834-21.914-90.88-159.539-289.69-233.318zM495.462 301.978c-103.936-38.554-176.128-82.637-222.874-122.368 32.922-29.901 94.515-37.171 155.955-14.387 78.182 29.030 126.208 95.642 107.213 148.736-0.205 0.666-0.563 1.229-0.819 1.843-12.8-4.147-25.958-8.755-39.475-13.824z" />
<glyph unicode="&#xe628;" d="M402.381 220.467l-41.472-41.165c-35.942-35.584-94.362-35.635-130.253 0-17.254 17.152-26.726 39.834-26.726 64.051s9.523 46.95 26.726 64.102l152.576 151.398c31.59 31.386 91.085 77.517 134.451 34.509 19.917-19.763 52.070-19.61 71.782 0.256 19.763 19.866 19.661 52.019-0.256 71.782-73.677 73.114-182.63 59.597-277.504-34.509l-152.576-151.398c-36.557-36.352-56.73-84.685-56.73-136.141 0-51.405 20.173-99.738 56.781-136.090 37.683-37.427 87.142-56.064 136.602-56.064s99.021 18.637 136.704 56.064l41.472 41.216c19.917 19.763 20.019 51.917 0.256 71.731-19.763 19.866-51.917 19.968-71.834 0.256zM864.819 808.499c-79.155 78.541-189.798 82.79-263.117 10.086l-51.661-51.251c-19.917-19.763-20.070-51.866-0.307-71.782 19.814-19.917 51.917-20.019 71.782-0.256l51.661 51.251c37.939 37.683 87.654 22.067 120.115-10.086 17.254-17.101 26.726-39.885 26.726-64.051 0-24.218-9.523-46.95-26.726-64.051l-162.816-161.485c-74.394-73.83-109.363-39.219-124.262-24.422-19.917 19.763-52.019 19.61-71.731-0.256-19.763-19.917-19.661-52.070 0.256-71.782 34.15-33.894 73.216-50.688 114.074-50.688 50.074 0 102.963 25.19 153.242 75.11l162.765 161.485c36.608 36.301 56.781 84.634 56.781 136.038s-20.173 99.789-56.781 136.141z" />
<glyph unicode="&#xe629;" d="M946.483 733.184c-584.090-233.83-347.494 395.52-800.512 64.205l-94.771-33.997 187.699-737.792h103.373l-91.904 361.37c404.173 338.842 240.538-369.203 718.643 325.478 11.11 16.128-3.738 28.262-22.528 20.736z" />
<glyph unicode="&#xe62a;" d="M859.392 460.8c0 53.658 33.024 96 82.688 125.082-9.011 29.901-20.787 58.624-35.379 85.606-55.808-14.592-100.915 7.27-138.803 45.158-37.99 37.939-49.613 83.098-35.021 138.803-26.982 14.592-55.603 26.522-85.606 35.43-29.082-49.715-81.664-82.739-135.27-82.739-53.606 0-106.138 33.024-135.27 82.739-30.003-8.909-58.624-20.838-85.606-35.379 14.541-55.757 2.97-100.915-34.97-138.854-37.939-37.888-83.098-59.75-138.803-45.21-14.592-26.931-26.47-55.654-35.43-85.555 49.715-29.082 82.739-71.424 82.739-125.082 0-53.606-33.024-106.189-82.739-135.322 8.96-29.952 20.838-58.624 35.43-85.606 55.757 14.592 100.864 2.97 138.803-34.97 37.939-37.939 49.51-83.046 34.97-138.803 26.982-14.592 55.654-26.522 85.606-35.43 29.133 49.766 81.664 82.739 135.27 82.739 53.606 0 106.24-33.024 135.322-82.739 30.003 8.96 58.624 20.838 85.606 35.43-14.592 55.757-3.021 100.864 35.021 138.803 37.888 37.888 82.995 59.75 138.803 45.21 14.592 26.982 26.419 55.654 35.379 85.606-49.715 29.133-82.739 71.475-82.739 125.082zM512 273.766c-103.27 0-186.982 83.763-186.982 187.034s83.712 187.034 186.982 187.034c103.322 0 187.034-83.763 187.034-187.034s-83.712-187.034-187.034-187.034z" />
<glyph unicode="&#xe62b;" d="M160.461 620.032c47.821 37.12 87.45 11.571 140.339-49.664 5.99-6.861 13.978 1.178 18.483 5.12 4.506 3.994 74.342 66.765 77.722 69.683 3.43 3.021 7.526 8.653 2.099 14.95s-25.293 32-38.042 48.64c-92.57 121.088 253.235 203.213 200.090 204.493-26.982 0.717-135.475 1.946-151.654 0.256-65.69-6.963-148.173-68.352-189.696-96.922-54.272-37.325-74.598-58.982-77.926-62.003-15.36-13.466-2.458-44.39-30.31-68.813-29.44-25.805-47.77-6.298-64.819-21.248-8.499-7.475-32.102-25.139-38.912-31.13-6.758-5.939-7.987-16.026-1.075-24.115 0 0 64.666-71.475 70.144-77.773 5.427-6.298 20.019-11.622 29.082-3.635 9.062 7.936 32.307 28.365 36.25 31.846 3.994 3.43-2.56 44.186 18.227 60.314zM452.762 593.613c-6.144 7.117-13.722 7.27-20.326 1.434l-73.472-64.051c-5.734-5.12-6.502-14.541-1.331-20.48l424.653-483.226c9.882-11.469 27.085-12.646 38.502-2.714l49.715 41.574c11.315 9.933 12.493 27.341 2.611 38.758l-420.352 488.704zM1018.982 799.283c-3.789 25.293-16.896 19.968-23.706 9.216-6.707-10.701-36.915-56.371-49.306-77.005-12.288-20.582-42.496-60.979-99.021-21.094-58.778 41.574-38.298 70.605-28.109 90.112 10.291 19.61 41.882 74.496 46.49 81.408 4.506 6.912-0.819 26.982-18.995 18.586-18.278-8.448-129.178-52.531-144.589-115.712-15.718-64.358 13.21-121.805-43.52-178.893l-68.71-71.68 69.018-80.282 84.685 80.435c20.224 20.275 63.283 39.987 102.298 31.13 83.61-18.944 129.178 12.493 156.723 64.358 24.678 46.438 20.582 144.128 16.742 169.421zM140.288 99.789c-10.65-10.752-10.65-28.16 0-38.861l48.691-47.616c10.65-10.701 27.546-6.195 38.195 4.506l251.238 247.040-77.005 87.706-261.12-252.774z" />
<glyph unicode="&#xe62c;" d="M572.467 237.875c0 74.291 56.32 115.354 148.173 176.179 112.384 74.496 252.16 167.168 252.16 387.021 0 19.814-16.179 35.84-36.198 35.84h-175.667c-24.832 45.875-98.714 94.925-248.934 94.925-150.17 0-224.102-49.050-248.883-94.925h-175.667c-20.019 0-36.25-16.026-36.25-35.84 0-219.853 139.827-312.525 252.211-386.97 91.904-60.826 148.224-101.888 148.224-176.179v-67.123c-96.512-10.752-167.424-46.438-167.424-88.883 0-50.893 101.99-92.16 227.789-92.16 125.85 0 227.84 41.267 227.84 92.16 0 42.445-70.912 78.131-167.424 88.883v67.072zM714.598 496.64c29.082 61.44 52.070 144.742 55.757 268.595h128.461c-12.237-138.189-95.334-208.026-184.218-268.595zM512 869.069c139.878 0.051 194.56-57.139 194.509-78.336 0-21.35-54.528-78.49-194.509-78.592-139.878 0.154-194.458 57.242-194.458 78.592-0.051 21.197 54.579 78.438 194.458 78.336zM125.235 765.235h128.41c3.738-123.853 26.726-207.155 55.757-268.595-88.883 60.57-171.93 130.406-184.166 268.595z" />
<glyph unicode="&#xe62d;" d="M987.699 952.013c-5.53 16.128-22.989 24.627-38.963 19.046s-24.371-23.245-18.79-39.424c47.104-136.704-46.387-238.797-117.606-293.427l-28.826 41.677c-9.626 13.926-31.334 25.549-48.128 25.805l-161.536-0.768c-16.794 0.256-41.779-7.526-55.603-17.254l-475.955-337.306c-23.040-16.333-28.723-48.486-12.544-71.834l216.371-312.678c16.128-23.347 42.086-20.531 65.126-4.25l475.955 337.357c13.824 9.728 29.542 30.925 35.123 47.002l50.586 161.075c5.478 16.077 2.15 40.653-7.475 54.579l-17.613 25.395c95.693 73.984 195.021 204.902 139.878 365.005zM766.259 472.986c-36.915-26.163-87.757-17.050-113.613 20.275-25.805 37.325-16.845 88.781 20.070 114.944 29.286 20.787 67.328 19.251 94.72-0.922-13.824-8.397-23.245-13.21-25.037-14.080-15.258-7.27-21.811-25.702-14.592-41.165 5.222-11.213 16.179-17.818 27.699-17.818 4.352 0 8.806 0.973 13.005 2.97 9.779 4.659 20.378 10.342 31.386 16.947 4.915-30.362-7.066-62.31-33.638-81.152z" />
<glyph unicode="&#xe62e;" d="M512 563.2c-84.787 0-153.6-68.813-153.6-153.6 0-84.838 68.813-153.6 153.6-153.6 84.838 0 153.6 68.762 153.6 153.6 0 84.787-68.762 153.6-153.6 153.6zM921.6 716.8h-122.829c-16.896 0-35.123 13.107-40.448 29.133l-31.744 95.283c-5.427 16.077-23.603 29.184-40.499 29.184h-348.16c-16.896 0-35.123-13.107-40.397-29.133l-31.846-95.334c-5.325-16.026-23.501-29.133-40.397-29.133h-122.88c-56.32 0-102.4-46.080-102.4-102.4v-460.8c0-56.32 46.080-102.4 102.4-102.4h819.2c56.371 0 102.4 46.080 102.4 102.4v460.8c0 56.32-46.029 102.4-102.4 102.4zM512 153.6c-141.414 0-256 114.586-256 256 0 141.363 114.586 256 256 256 141.363 0 256-114.637 256-256 0-141.414-114.637-256-256-256zM885.76 542.822c-19.763 0-35.789 16.026-35.789 35.84s16.026 35.84 35.789 35.84c19.814 0 35.84-16.026 35.84-35.84s-16.026-35.84-35.84-35.84z" />
<glyph unicode="&#xe62f;" d="M881.818 612.915c-81.050 188.672-211.558 332.339-277.555 305.459-112.077-45.568 66.816-264.397-483.635-488.141-47.565-19.302-59.597-96.666-39.68-142.899 19.866-46.234 84.89-92.262 132.454-72.96 8.192 3.328 38.451 13.056 38.451 13.056 33.946-45.568 69.478-18.534 82.125-47.514 15.155-34.816 48.077-110.438 59.238-136.141 11.264-25.702 36.659-49.562 55.091-42.547 18.33 7.014 80.947 30.874 104.909 39.936s29.696 30.464 22.374 47.309c-7.885 18.125-40.243 23.45-49.459 44.646-9.267 21.197-39.424 89.037-48.077 110.438-11.776 29.082 13.261 52.736 49.664 56.525 250.573 26.112 297.421-128.666 382.72-93.952 65.843 26.931 52.429 218.112-28.621 406.784zM853.606 306.893c-14.643-5.939-113.254 71.782-176.282 218.47-62.976 146.637-55.040 280.678-40.448 286.618 14.643 5.99 110.848-87.859 173.875-234.496 62.925-146.586 57.498-264.653 42.854-270.592z" />
<glyph unicode="&#xe631;" d="M888.422 739.072c-158.925 105.677-337.357 142.182-548.966 81.562-165.171-47.36-316.57-235.213-328.294-396.083-13.875-190.208 134.298-353.075 395.162-352.819 281.293 0.307 386.56 135.373 388.915 176.384 2.304 41.062-109.773 116.941-37.632 194.97 90.368 97.741 170.803 14.438 219.546 26.214 48.742 11.674 73.421 161.843-88.73 269.773zM562.074 261.99c-42.547 0-77.056 34.406-77.056 76.8 0 42.445 34.509 76.8 77.056 76.8s77.005-34.355 77.005-76.8c-0.051-42.394-34.458-76.8-77.005-76.8z" />
<glyph unicode="&#xe633;" d="M604.109 911.411h-82.125v-669.286c-45.414 17.51-104.192 17.766-162.15-3.328-103.834-37.786-165.734-129.741-138.24-205.312 27.546-75.622 134.042-106.24 237.875-68.454 88.218 32.102 145.92 103.27 144.486 170.24l0.154 547.328c143.206-22.528 152.986-203.622 135.834-254.413-6.554-19.251 4.966-33.638 26.624 0 154.368 240.282-162.458 346.214-162.458 483.226z" />
<glyph unicode="&#xe634;" d="M312.832 833.075v-607.59c-33.075 6.912-71.578 4.301-109.773-9.83-85.862-31.898-116.173-109.568-93.389-173.363 22.733-63.846 89.958-89.651 175.821-57.754 72.909 27.085 120.678 87.091 119.45 143.718 0 0 0 322.202 0 501.914l363.571 83.302v-385.536c-33.075 6.912-71.578 4.301-109.773-9.83-85.914-31.898-116.224-109.568-93.44-173.363 22.784-63.846 89.958-89.651 175.872-57.754 72.96 27.085 120.627 87.091 119.501 143.718v720.077l-547.84-117.709z" />
<glyph unicode="&#xe635;" d="M956.928 340.685l-88.422 78.848c-25.6 22.835-25.6 60.109 0 82.944l88.422 78.797c25.6 22.835 18.739 44.083-15.206 47.309l-117.197 11.11c-33.946 3.226-52.224 32.41-40.55 64.87l62.208 173.158c11.674 32.461-2.611 44.288-31.693 26.266l-138.291-85.504c-29.082-18.022-66.662-8.192-83.507 21.862l-50.125 89.395c-16.794 30.054-44.646 30.208-61.798 0.358l-46.541-80.998c-17.152-29.85-56.576-42.598-87.603-28.314l-81.92 37.632c-31.078 14.234-54.938-2.253-53.094-36.762l4.454-82.688c1.843-34.458-23.603-69.99-56.525-78.848l-79.104-21.248c-32.922-8.909-38.963-34.816-13.363-57.651l88.422-78.797c25.6-22.784 25.6-60.109 0-82.893l-88.422-78.746c-25.6-22.886-18.842-44.902 15.002-48.998l107.264-13.005c33.843-4.198 52.736-34.406 41.933-67.123l-55.040-166.81c-10.803-32.819 4.608-45.619 34.202-28.416l126.106 72.909c29.645 17.203 69.427 7.68 88.474-20.89l52.378-78.694c18.995-28.723 47.616-27.085 63.437 3.482l46.029 88.678c15.923 30.618 53.914 43.11 84.429 27.802l88.781-44.39c30.618-15.309 54.118 0.41 52.275 34.918l-4.454 82.688c-1.843 34.509 23.603 69.99 56.525 78.899l79.053 21.197c33.024 8.96 39.066 34.867 13.466 57.651zM563.2 246.016h-102.4v107.52h102.4v-107.52zM563.2 409.805h-102.4v266.24h102.4v-266.24z" />
<glyph unicode="&#xe636;" d="M169.062 346.214c23.757-96.307 53.965-138.291 154.726-182.374 100.813-44.032 148.685-92.16 188.211-92.16s84.326 42.086 185.139 86.221c100.813 43.981 73.933 57.498 97.69 153.702l-282.829-137.523-342.938 172.134zM998.963 597.197l-426.24 238.694c-33.382 18.688-88.013 18.688-121.395 0l-426.291-238.694c-33.382-18.688-33.382-49.306 0-67.994l426.24-238.694c33.382-18.688 88.013-18.688 121.395 0l275.558 154.317-298.803 69.99c-11.469-2.867-24.115-4.454-37.427-4.454-53.811 0-97.434 25.958-97.434 57.958s43.622 58.010 97.434 58.010c41.779 0 77.363-15.718 91.187-37.683l316.467-103.834 79.309 44.39c33.382 18.688 33.382 49.306 0 67.994zM868.71 144.794c-3.226-19.61 65.69-52.019 72.243 5.581 29.645 259.635-21.299 334.387-21.299 334.387l-71.424-39.987c0 0.051 60.57-57.6 20.48-299.981z" />
<glyph unicode="&#xe637;" d="M852.378 709.478l-460.698 237.517c-63.13 33.229-187.546-30.976-223.283-87.501-15.923-25.293-14.797-43.52-14.797-53.862l5.683-536.32c0.358-11.418 14.746-26.726 26.982-34.304 25.549-15.667 412.672-257.28 423.578-264.141 5.888-3.686 12.902-5.376 19.763-5.376 5.837 0 11.725 1.28 17.050 3.942 11.674 5.734 18.944 16.794 18.944 28.928v563.251c0 11.725-6.861 22.528-18.022 28.416l-418.714 233.779c4.71 9.216 23.347 28.672 57.6 46.592 36.096 18.944 63.078 11.776 69.274 9.37 0 0 401.92-215.091 414.208-221.491 12.237-6.4 12.493-7.373 12.493-18.278 0-10.957 0-534.528 0-534.528 0-26.675 27.034-37.581 46.95-37.581 19.814 0 41.011 19.456 41.011 37.581v575.59c0 11.725-6.912 22.579-18.022 28.416z" />
<glyph unicode="&#xe638;" d="M819.2 921.6h-614.4c-56.32 0-102.4-46.080-102.4-102.4v-716.8c0-56.32 46.080-102.4 102.4-102.4h614.4c56.371 0 102.4 46.080 102.4 102.4v716.8c0 56.32-46.029 102.4-102.4 102.4zM819.2 102.4h-614.4v716.8h614.4v-716.8zM563.2 358.4h-256v-51.2h256v51.2zM716.8 563.2h-204.8v-51.2h204.8v51.2zM512 614.4h204.8v102.4h-204.8v-102.4zM460.8 716.8h-153.6v-204.8h153.6v204.8zM409.6 460.8h-102.4v-51.2h102.4v51.2zM460.8 409.6h256v51.2h-256v-51.2zM716.8 256h-409.6v-51.2h409.6v51.2zM614.4 307.2h102.4v51.2h-102.4v-51.2z" />
<glyph unicode="&#xe639;" d="M927.846 785.050c-15.155 13.107-97.587 75.52-112.998 88.781s-39.475 17.050-56.474 17.050h-492.749c-16.947 0-41.062-3.738-56.422-17.050-15.411-13.312-97.843-75.725-112.998-88.781s-27.802-32.819-23.757-60.979c4.045-28.16 99.174-664.218 99.174-664.218 5.325-16.026 23.552-29.133 40.55-29.133h599.706c16.998 0 35.226 13.158 40.55 29.133 0 0 95.078 636.058 99.174 664.218 3.994 28.16-8.602 47.872-23.757 60.979zM512 339.558c-166.298 0-201.882 235.366-209.254 283.853h94.054c14.182-70.758 46.387-191.693 115.2-191.693s101.069 120.934 115.251 191.693h94.003c-7.373-48.486-42.957-283.853-209.254-283.853zM151.706 716.8l112.947 117.76h494.694l112.947-117.76h-720.589z" />
<glyph unicode="&#xe63a;" d="M273.92-45.056h102.4l229.786 409.651h264.294c0 0 153.6 0 153.6 71.629 0 71.68-153.6 71.68-153.6 71.68h-264.294l-229.786 409.6h-102.4l127.386-409.6h-183.654l-115.251 102.451h-102.4l81.971-174.080-81.971-174.131h102.4l115.251 102.451h183.654l-127.386-409.651z" />
<glyph unicode="&#xe63b;" d="M505.702 931.789c-260.096-3.482-468.173-217.139-464.691-477.286 3.482-260.198 217.19-468.173 477.286-464.742 260.147 3.482 468.224 217.19 464.691 477.286-3.482 260.198-217.19 468.224-477.286 464.742zM506.573 870.4c70.144 0.973 136.397-15.872 194.56-46.131l-63.386-105.677c-37.99 18.483-80.64 28.928-125.747 28.928-45.056 0-87.706-10.445-125.696-28.979l-63.334 105.626c54.989 28.672 117.35 45.312 183.603 46.234zM254.259 335.104l-105.574-63.283c-28.672 54.938-45.312 117.299-46.182 183.501-0.973 70.195 15.872 136.448 46.131 194.56l105.626-63.437c-18.534-37.939-28.979-80.538-28.979-125.645 0-45.056 10.445-87.706 28.979-125.696zM517.478 51.251c-70.144-0.973-136.448 15.872-194.56 46.131l63.386 105.677c37.99-18.534 80.64-28.979 125.696-28.979 45.107 0 87.757 10.394 125.696 28.928l63.334-105.574c-54.989-28.621-117.299-45.261-183.552-46.182zM512 235.571c-124.416 0-225.229 100.864-225.229 225.229 0 124.416 100.864 225.28 225.229 225.28 124.467 0 225.28-100.864 225.28-225.28 0-124.416-100.813-225.229-225.28-225.229zM769.741 335.104c18.534 37.99 28.979 80.64 28.979 125.696 0 45.107-10.445 87.706-28.979 125.696l105.574 63.386c28.672-54.989 45.363-117.299 46.234-183.552 0.922-70.195-15.923-136.448-46.182-194.56l-105.626 63.334z" />
<glyph unicode="&#xe63c;" d="M512 747.52c-335.923 0-512-247.45-512-286.72s176.077-286.72 512-286.72 512 247.45 512 286.72-176.077 286.72-512 286.72zM512 240.23c-125.645 0-227.533 98.765-227.533 220.57s101.888 220.57 227.533 220.57c125.696 0 227.584-98.765 227.584-220.57s-101.888-220.57-227.584-220.57zM512 460.8c-20.787 22.835 33.997 110.234 0 110.234-62.822 0-113.766-49.357-113.766-110.234s50.944-110.285 113.766-110.285c62.874 0 113.818 49.408 113.818 110.285 0 27.955-96.051-19.456-113.818 0z" />
<glyph unicode="&#xe63d;" d="M512 931.84c-260.147 0-471.040-210.944-471.040-471.040 0-260.147 210.893-471.040 471.040-471.040s471.040 210.893 471.040 471.040c0 260.147-210.893 471.040-471.040 471.040zM512 92.16c-203.622 0-368.64 165.069-368.64 368.64s165.018 368.64 368.64 368.64 368.64-165.069 368.64-368.64-165.018-368.64-368.64-368.64zM547.84 727.040h-71.68v-281.088l174.336-174.336 50.688 50.688-153.344 153.344z" />
<glyph unicode="&#xe63e;" d="M819.2 601.958h-30.72c-11.315 0-20.48-9.216-20.48-20.48v-141.158c0-68.454-53.914-184.32-256-184.32s-256 115.866-256 184.32v141.158c0 11.264-9.267 20.48-20.48 20.48h-30.72c-11.264 0-20.48-9.216-20.48-20.48v-141.158c0-114.534 84.173-237.056 276.48-253.952v-135.168h-133.171c-11.213 0-20.429-9.216-20.429-20.48v-61.44c0-11.264 9.216-20.48 20.429-20.48h368.64c11.315 0 20.48 9.216 20.48 20.48v61.44c0 11.315-9.216 20.48-20.48 20.48h-133.069v135.168c192.358 16.896 276.48 139.469 276.48 253.952v141.158c0 11.264-9.216 20.48-20.48 20.48zM512 358.4c120.166 0 153.6 49.357 153.6 81.92v161.638h-307.2v-161.638c0-32.563 33.434-81.92 153.6-81.92zM665.6 890.88c0 32.614-33.434 81.92-153.6 81.92s-153.6-49.306-153.6-81.92v-217.242h307.2v217.242z" />
<glyph unicode="&#xe63f;" d="M870.4 819.2h-46.080v-102.4h-163.84v102.4h-296.96v-102.4h-163.84v102.4h-46.080c-56.32 0-102.4-46.080-102.4-102.4v-614.4c0-56.32 46.080-102.4 102.4-102.4h716.8c56.32 0 102.4 46.080 102.4 102.4v614.4c0 56.32-46.080 102.4-102.4 102.4zM870.4 102.4h-716.8v409.6h716.8v-409.6zM317.44 921.6h-71.68v-174.080h71.68v174.080zM778.24 921.6h-71.68v-174.080h71.68v174.080z" />
<glyph unicode="&#xe640;" d="M348.314 0.051c-9.882 6.502 161.485 366.592 155.546 382.413-5.888 15.821-187.597 73.574-196.506 101.376-8.858 27.802 358.81 445.747 368.435 437.658 9.626-8.038-160.205-370.586-155.546-382.362s190.925-71.987 196.506-101.325c5.581-29.44-358.554-444.211-368.435-437.76z" />
<glyph unicode="&#xe641;" d="M778.906 581.683c-14.080 0-27.955-1.229-41.421-3.482-33.587 109.824-137.626 189.85-260.915 189.85-150.426 0-272.333-119.194-272.333-266.24 0-13.107 1.024-26.010 2.918-38.656-7.219 0.819-14.49 1.382-21.965 1.382-102.246 0-185.19-81.101-185.19-181.043 0-99.994 82.944-181.043 185.19-181.043h593.715c135.424 0 245.094 107.315 245.094 239.616s-109.722 239.616-245.094 239.616zM582.246 360.96c-25.344-36.045-133.888-147.917-138.496-152.627-5.325-6.554-20.019-17.562-33.946-8.499-3.994 2.611-8.806 7.834-8.806 18.125 0 9.882 4.506 19.968 5.069 21.094l52.89 117.043c-9.933 3.942-26.982 10.854-40.243 16.64l-3.533 1.536c-13.414 5.632-30.106 12.749-30.106 31.13 0 8.755 4.198 18.995 12.749 31.181 25.344 36.045 133.888 147.866 138.496 152.627 5.325 6.554 19.968 17.562 33.946 8.55 3.994-2.611 8.806-7.834 8.806-18.125 0-9.882-4.506-19.968-5.069-21.094l-52.89-117.043c9.933-3.994 26.982-10.906 40.243-16.64l3.482-1.485c13.414-5.683 30.106-12.8 30.106-31.181 0.051-8.858-4.147-19.046-12.698-31.232z" />
<glyph unicode="&#xe642;" d="M522.394 944.077c-1.331 10.957-19.456 10.957-20.787 0-45.21-363.93-276.326-438.938-276.326-691.866 0-156.211 131.226-282.88 286.72-282.88 155.494 0 286.72 126.72 286.72 282.88 0 252.928-231.117 327.936-276.326 691.866zM478.771 541.798c-3.072-11.213-6.298-22.784-9.626-34.662-20.531-72.909-43.827-155.597-43.827-251.187 0-51.814-30.618-70.195-59.238-70.195-32.666 0-59.187 26.675-59.187 59.699 0 112.998 54.426 186.778 102.451 251.904 15.053 20.378 29.235 39.629 40.806 58.88 5.274 8.755 19.507 8.397 25.958-0.307 2.918-4.198 3.942-9.318 2.662-14.131z" />
<glyph unicode="&#xe644;" d="M465.92 409.498h92.16v-102.4h465.92c0 0-7.578 228.25-10.24 299.725-2.509 67.891-26.778 109.875-102.4 109.875h-164.25c-25.446 47.974-52.838 99.584-61.235 115.456-16.947 31.949-22.733 38.144-60.416 38.144h-226.918c-37.683 0-43.469-6.195-60.416-38.144-8.397-15.872-35.789-67.482-61.235-115.456h-164.25c-75.622 0-99.584-41.984-102.4-109.875s-10.24-299.725-10.24-299.725h465.92v102.4zM391.68 772.25c11.725 22.118 15.77 26.419 41.779 26.419h157.030c26.112 0 30.106-4.301 41.779-26.419 4.403-8.294 16.282-30.72 29.491-55.501h-299.52c13.158 24.73 25.037 47.155 29.44 55.501zM558.080 153.498h-92.16v102.4h-440.32c0 0 6.4-92.058 10.24-170.086 1.587-32.41 11.11-85.914 92.109-85.914h768.102c80.998 0 90.317 53.555 92.109 85.914 4.454 80.23 10.24 170.086 10.24 170.086h-440.32v-102.4z" />
<glyph unicode="&#xe645;" d="M135.373 647.322c89.446 76.8 160.154 137.574 351.846 29.184 92.109-52.070 166.4-71.629 228.25-71.629 108.288 0 178.432 60.262 239.104 112.333 21.658 18.586 24.474 51.61 6.246 73.677s-50.483 24.934-72.141 6.349c-89.446-76.851-160.102-137.574-351.898-29.184-253.338 143.104-372.019 41.165-467.354-40.755-21.606-18.586-24.422-51.558-6.246-73.626s50.534-24.986 72.192-6.349zM888.627 535.757c-89.446-76.8-160.102-137.574-351.898-29.184-253.286 143.104-371.968 41.165-467.302-40.704-21.658-18.586-24.474-51.61-6.246-73.677s50.483-24.934 72.141-6.349c89.446 76.851 160.154 137.574 351.846 29.235 92.109-52.070 166.4-71.68 228.25-71.68 108.288 0 178.432 60.262 239.104 112.384 21.658 18.586 24.474 51.558 6.246 73.626-18.176 22.118-50.483 24.934-72.141 6.349zM888.627 274.278c-89.446-76.8-160.102-137.574-351.898-29.184-253.286 143.104-372.019 41.216-467.302-40.704-21.658-18.586-24.474-51.61-6.246-73.677s50.483-24.934 72.141-6.349c89.498 76.851 160.154 137.523 351.898 29.235 92.109-52.070 166.4-71.68 228.25-71.68 108.288 0 178.432 60.262 239.104 112.384 21.658 18.534 24.474 51.558 6.246 73.626s-50.534 24.986-72.192 6.349z" />
<glyph unicode="&#xe646;" d="M798.72 738.406c0 109.568 0 120.269 0 120.269 0 40.448-128.358 114.125-286.72 114.125s-286.72-73.677-286.72-114.125c0 0 0-10.701 0-120.269 0-109.568 198.502-200.038 198.502-277.606 0-77.619-198.502-168.038-198.502-277.658 0-109.568 0-120.269 0-120.269 0-40.397 128.358-114.074 286.72-114.074s286.72 73.677 286.72 114.125c0 0 0 10.701 0 120.269 0 109.619-198.451 200.038-198.451 277.658 0 77.517 198.451 168.038 198.451 277.555zM304.128 853.555c35.635 22.477 102.451 55.45 210.637 55.45 108.237 0 205.107-55.45 205.107-55.45 7.27-4.403 35.738-19.661 16.23-31.181-42.957-25.446-126.925-52.224-224.154-52.224s-178.33 29.542-221.286 54.989c-19.507 11.571 13.466 28.416 13.466 28.416zM537.651 460.8c0-61.082 50.995-100.403 105.062-152.883 39.475-38.349 93.44-90.829 93.44-124.774v-67.994c-49.613 24.73-198.195 48.947-198.195 128.205 0 40.141-51.917 40.141-51.917 0 0-79.258-148.582-103.475-198.195-128.205v67.994c0 33.894 54.016 86.426 93.491 124.774 54.016 52.48 105.011 91.802 105.011 152.883 0 61.082-50.995 100.403-105.011 152.883-39.475 38.349-93.491 90.88-93.491 124.723l-2.406 51.2c52.531-28.262 135.834-55.245 226.56-55.245s174.438 26.982 226.97 55.245l-2.816-51.2c0-33.843-54.016-86.374-93.44-124.723-54.067-52.48-105.062-91.802-105.062-152.883z" />
<glyph unicode="&#xe647;" d="M416.154 266.138c-35.328-61.235-11.571-111.616 37.427-139.878s104.55-23.757 139.878 37.478c35.328 61.184 258.406 607.539 239.002 618.752-19.354 11.213-380.979-455.117-416.307-516.352zM512 655.258c22.426 0 44.288-1.946 65.587-5.53 22.426 28.058 47.565 58.982 71.987 88.422-43.622 12.646-89.651 19.507-137.574 19.507-287.078 0-512-242.074-512-551.117 0-19.046 0.87-38.042 2.509-56.576 2.509-28.16 27.648-48.896 55.552-46.438 28.16 2.56 48.947 27.392 46.438 55.552-1.382 15.514-2.099 31.488-2.099 47.462 0 251.597 179.968 448.717 409.6 448.717zM881.613 591.309c-14.285-38.4-29.389-77.517-42.701-111.36 52.070-75.264 82.688-169.626 82.688-273.408 0-16.23-0.717-32.563-2.15-48.384-2.56-28.16 18.176-53.043 46.336-55.654 1.587-0.154 3.123-0.205 4.71-0.205 26.163 0 48.486 20.019 50.893 46.541 1.741 18.944 2.611 38.349 2.611 57.702 0 151.091-53.862 286.157-142.387 384.768z" />
<glyph unicode="&#xe649;" d="M269.978 618.803c10.291 0 20.224-1.536 29.542-4.454 35.328 39.578 74.496 75.622 116.89 107.571-1.741 7.424-2.816 15.206-2.816 23.245 0 11.162 1.843 21.811 5.222 31.744-47.462 34.099-99.174 62.669-154.061 84.787-51.558-31.846-96.461-73.37-132.25-122.010 26.573-47.053 58.214-90.931 94.106-130.918 13.158 6.4 27.853 10.035 43.366 10.035zM169.779 518.605c0 14.029 2.918 27.443 8.141 39.578-32.102 35.328-61.286 73.421-86.835 114.074-32-63.59-50.125-135.424-50.125-211.456 0-88.115 24.269-170.496 66.355-240.998 15.002 84.736 43.571 164.864 82.944 238.285-12.8 16.794-20.48 37.734-20.48 60.518zM513.792 845.414c26.522 0 50.483-10.342 68.403-27.085 52.275 22.477 107.366 39.731 164.659 50.739-69.171 39.834-149.299 62.771-234.854 62.771-58.317 0-114.125-10.701-165.632-30.106 40.909-20.224 79.923-43.725 116.531-70.349 14.95 8.858 32.307 14.029 50.893 14.029zM663.706 373.35c6.246 13.005 15.104 24.474 26.061 33.587-29.594 91.034-76.442 174.285-136.806 245.965-12.032-5.12-25.242-7.936-39.168-7.936-21.709 0-41.779 7.014-58.214 18.739-36.352-27.597-69.939-58.573-100.506-92.365 9.523-15.309 15.104-33.331 15.104-52.736 0-10.496-1.587-20.531-4.557-30.054 87.91-58.726 189.082-99.021 298.086-115.2zM793.702 238.029c1.331-18.944 2.099-38.093 2.099-57.395 0-34.048-2.202-67.482-6.298-100.403 79.923 58.368 140.698 141.158 171.418 237.517-36.352-8.806-73.626-15.104-111.667-18.739-8.96-27.392-29.338-49.613-55.552-60.979zM640.205 306.022c-116.275 19.251-224.102 63.59-317.901 127.181-15.258-9.37-33.075-14.848-52.275-14.848-7.066 0-13.875 0.768-20.531 2.15-44.902-85.197-73.626-180.224-81.92-280.883 44.851-48.077 99.584-86.784 161.075-112.794 76.288 117.299 182.989 214.426 311.552 279.194zM828.211 809.882c-75.469-7.27-147.558-26.214-214.682-54.682 0.41-3.277 0.563-6.656 0.563-10.035 0-15.821-3.738-30.72-10.291-43.981 67.072-78.746 119.142-170.496 152.064-270.899 40.704-0.768 75.571-25.702 90.573-61.184 45.363 4.608 89.498 13.312 132.045 25.805 2.918 21.504 4.557 43.469 4.557 65.894 0 138.445-59.75 262.963-154.829 349.082zM690.637 252.467c-120.064-56.218-220.365-142.797-293.069-248.627 36.608-9.165 74.957-14.080 114.432-14.080 71.117 0 138.394 15.821 198.81 43.981 9.677 47.462 14.848 96.563 14.848 146.893 0 18.125-0.87 36.147-2.202 54.016-12.083 3.84-23.194 9.933-32.819 17.818z" />
<glyph unicode="&#xe64a;" d="M905.728 730.829c-25.702 152.474-164.864 254.31-310.733 227.379-145.92-26.88-269.005-144.179-243.302-296.653 5.581-32.819 20.89-84.224 39.066-121.088l-264.96-395.418c-9.779-14.592-15.309-40.909-12.39-58.419l17.050-100.915c2.97-17.51 19.098-29.286 35.84-26.214l77.619 14.285c16.794 3.123 38.042 17.869 47.309 32.819l105.728 170.547 70.912 13.107 122.317 198.554c40.243-7.117 97.894-4.71 131.994 1.587 145.971 26.931 209.306 187.955 183.552 340.429zM776.499 652.698c-40.141-59.853-81.050-17.664-138.394 24.32-57.293 41.933-109.312 67.738-69.171 127.59 40.141 59.904 119.091 74.496 176.435 32.512 57.344-41.933 71.27-124.57 31.13-184.422z" />
<glyph unicode="&#xe64b;" d="M788.89 460.8c0 141.619 65.382 221.184 116.582 221.184 18.637 0 67.277 0 67.277 0-34.15 54.221-62.413 86.016-187.187 86.016h-512.41c-191.181 0-273.152-176.179-273.152-307.2s81.971-307.2 273.152-307.2h512.41c124.826 0 153.037 31.795 187.238 86.067 0 0-16.077 0-67.277 0s-116.634 79.565-116.634 221.133zM649.626 368.947c-8.346-12.902-34.56-0.819-34.56-0.819l-151.398 68.403c0 0-13.517-34.253-23.962-58.368s-18.483-51.456-61.901-20.89c-43.469 30.566-183.296 166.4-183.296 166.4s-17.715 14.49-8.858 28.16c8.346 12.902 34.56 0.819 34.56 0.819l151.398-68.403c0 0 13.517 34.202 23.962 58.368 10.445 24.064 18.483 51.456 61.901 20.89 43.469-30.566 183.347-166.451 183.347-166.451s17.613-14.438 8.806-28.109zM966.4 566.938h-38.298c-28.672 0-56.627-38.656-56.627-101.376s28.006-101.325 56.627-101.325h38.298c28.621 0 57.6 38.605 57.6 101.325s-28.979 101.376-57.6 101.376z" />
<glyph unicode="&#xe64c;" d="M580.147 901.12v0c-251.29 0-409.498-86.579-398.899-156.16 3.072-19.866 11.52-73.984 22.221-142.080-123.136-47.821-163.942-125.286-158.464-188.518 6.451-74.803 73.779-154.88 221.594-168.755 84.378-7.834 185.907 38.4 251.75 117.504-6.298 10.65-9.882 22.938-9.882 36.198 0 39.578 32.051 71.68 71.629 71.68s71.68-32.102 71.68-71.68c0-39.014-31.232-70.707-70.042-71.578-78.336-101.018-197.581-161.946-310.528-154.829 2.611-16.64 3.635-22.938 4.915-31.386 4.659-29.594 120.166-120.832 303.974-120.986h0.051c183.808 0.154 299.366 91.392 303.974 120.986 4.557 29.44 84.070 532.787 94.822 603.443 10.65 69.53-147.61 156.16-398.797 156.16zM116.429 420.608c-2.816 32.87 23.296 76.646 98.458 109.517 10.803-68.659 22.579-143.206 32.922-208.64-82.125 16.128-127.898 58.931-131.379 99.123zM580.096 638.771c-183.808 0.102-314.214 68.352-314.214 93.798-0.102 25.344 130.406 93.696 314.214 93.594 183.808 0.102 314.368-68.25 314.266-93.594 0-25.446-130.406-93.696-314.266-93.798z" />
<glyph unicode="&#xe64d;" d="M622.797 58.419c-1.434-15.872 11.11-29.901 27.955-31.283l204.032-16.742c16.794-1.382 31.795 10.394 33.229 26.266l15.974 168.243-265.267 21.862-15.923-168.346zM120.013 204.851l15.923-168.243c1.485-15.872 16.486-27.648 33.28-26.266l204.032 16.742c16.794 1.382 29.389 15.462 27.904 31.283l-15.974 168.294-265.165-21.811zM93.747 482.15l16.435-173.568 265.267 21.811-16.486 173.414c-0.358 4.147-0.563 8.499-0.563 12.749 0 79.667 68.915 144.435 153.6 144.435s153.6-64.819 153.6-144.435c0-4.25-0.205-8.55-0.614-12.749l-16.384-173.414 265.216-21.811 16.435 173.568c1.024 11.469 1.587 22.989 1.587 34.406 0 217.702-188.365 394.803-419.84 394.803s-419.84-177.101-419.84-394.803c0-11.418 0.563-22.938 1.587-34.406z" />
<glyph unicode="&#xe64e;" d="M956.621 389.222l-161.178 383.59c-12.698 25.6-46.49 46.541-75.11 46.541h-416.614c-28.621 0-62.413-20.941-75.162-46.541l-161.126-383.59c-12.8-25.6-19.405-69.632-14.694-97.894l34.816-188.723c4.71-28.211 31.898-51.302 60.467-51.302h728.064c28.621 0 55.808 23.091 60.518 51.302l34.816 188.723c4.557 28.211-1.997 72.294-14.797 97.894zM886.784 254.771l-13.21-76.902c-3.994-29.542-30.618-53.709-59.085-53.709h-604.979c-28.518 0-55.091 24.166-59.085 53.709l-13.261 76.902c-3.942 29.542 16.128 53.709 44.698 53.709h660.275c28.57-0.051 48.64-24.166 44.646-53.709z" />
<glyph unicode="&#xe64f;" d="M512 880.64c-219.085 0-355.226-72.192-347.853-130.765l73.83-607.59c2.918-23.654 113.715-101.171 274.022-101.325 160.358 0.154 271.104 77.722 274.074 101.325l73.779 607.59c7.373 58.573-128.717 130.765-347.853 130.765zM512 660.941c-160.307 0.154-274.074 57.242-274.074 78.592-0.051 21.197 113.766 78.438 274.074 78.336 160.307 0.051 274.125-57.139 274.074-78.336 0-21.35-113.715-78.438-274.074-78.592z" />
<glyph unicode="&#xe650;" d="M627.866 329.318c0 0 361.421 260.762 321.331 559.258-0.922 6.554-3.072 10.854-5.734 13.773-2.816 2.714-7.014 4.966-13.466 5.888-291.686 40.909-546.509-328.909-546.509-328.909-221.082 26.522-205.005-17.613-305.869-259.84-19.302-46.182 11.981-62.106 46.285-49.101 34.304 12.902 110.029 41.523 110.029 41.523l132.557-135.629c0 0-27.955-77.466-40.602-112.538-12.646-35.174 2.867-67.174 48.026-47.462 236.749 103.27 279.859 86.835 253.952 313.037zM679.475 632.218c-30.618 31.334-30.618 82.125 0 113.459 30.618 31.283 80.23 31.283 110.848 0 30.669-31.283 30.669-82.125 0-113.459-30.566-31.386-80.23-31.386-110.848 0z" />
<glyph unicode="&#xe651;" d="M141.466 278.426c-77.517-76.186-12.032-154.419-115.046-270.387-46.49-52.326 191.386-36.352 309.248 79.514 49.971 49.101 35.891 120.73-17.715 173.466-53.606 52.685-126.515 66.509-176.486 17.408zM1000.499 939.11c-39.782 39.066-480.205-313.856-611.328-442.726-65.075-63.949-86.784-98.253-106.752-123.904-8.653-11.162 2.816-14.592 7.936-17.254 25.754-13.107 43.776-25.293 67.123-48.23 23.347-22.886 35.789-40.602 49.101-65.946 2.662-5.069 6.195-16.333 17.51-7.782 26.112 19.61 60.979 40.96 126.003 104.909 131.123 128.87 490.086 561.818 450.406 600.934z" />
<glyph unicode="&#xe652;" d="M921.6 768h-51.2v-768h51.2c56.32 0 102.4 46.080 102.4 102.4v563.2c0 56.32-46.080 102.4-102.4 102.4zM0 665.6v-563.2c0-56.32 46.080-102.4 102.4-102.4h51.2v768h-51.2c-56.32 0-102.4-46.080-102.4-102.4zM686.080 875.162c-34.867 16.23-90.522 46.438-174.080 46.438s-139.213-30.208-174.080-46.438v-107.162h-112.64v-768h573.44v768h-112.64v107.162zM624.64 768h-225.28v68.352c27.29 11.776 66.458 23.808 112.64 23.808s85.299-11.981 112.64-23.757v-68.403z" />
<glyph unicode="&#xe653;" d="M512 354.355c122.368 0 224.819 41.574 231.014 95.898-18.176 51.046-38.042 106.701-57.549 161.434-13.517-39.014-88.32-66.56-173.466-66.56s-159.898 27.494-173.517 66.509c-19.507-54.733-39.27-110.336-57.498-161.434 6.195-54.272 108.595-95.846 231.014-95.846zM512 697.651c57.498 0 110.95 17.818 126.618 45.466-21.555 60.57-40.090 112.486-51.814 145.254-7.731 21.862-43.008 33.229-74.803 33.229s-67.072-11.366-74.803-33.178c-11.725-32.768-30.208-84.736-51.814-145.254 15.667-27.699 69.12-45.517 126.618-45.517zM961.536 303.821l-192.256 77.466 22.17-61.798c-1.126-65.434-128.256-117.658-279.45-117.658s-278.323 52.224-279.398 117.658l22.118 61.798-192.256-77.466c-53.914-21.76-56.166-61.952-5.069-89.344l361.574-193.894c51.149-27.392 134.861-27.392 186.010 0l361.574 193.894c51.2 27.392 48.896 67.584-5.018 89.344z" />
<glyph unicode="&#xe654;" d="M512 952.371c-271.053 0-491.52-220.57-491.52-491.571 0-271.053 220.467-491.571 491.52-491.571s491.52 220.518 491.52 491.571c0 271.002-220.467 491.571-491.52 491.571zM931.226 460.8c0-95.898-32.563-184.371-86.835-255.027-15.36 12.032-31.642 44.442-16.282 78.029 15.462 33.792 19.507 112.026 15.974 142.438-3.379 30.413-19.2 103.731-62.208 104.448-42.854 0.666-72.294 14.797-97.792 65.69-52.89 105.83 99.277 126.208 46.387 184.832-14.797 16.435-91.29-67.789-102.502 44.442-0.768 8.038 6.912 20.070 17.152 32.512 166.093-55.808 286.106-212.787 286.106-397.363zM454.4 875.827c-9.984-19.456-36.454-27.443-52.582-42.138-34.97-31.642-50.022-27.29-68.915-57.702-18.944-30.413-80.179-74.189-80.179-96.205 0-21.965 30.925-47.974 46.387-42.906 15.462 5.12 56.218 4.813 80.179-3.584 24.013-8.499 200.448-16.947 144.179-166.093-17.818-47.411-95.846-39.424-116.634-117.965-3.123-11.52-13.875-60.723-14.643-76.8-1.229-24.883 17.613-118.682-6.4-118.682-24.115 0-88.934 83.917-88.934 99.123s-16.845 68.557-16.845 114.176-77.67 44.902-77.67 105.574c0 54.784 42.138 82.022 32.666 108.186-9.318 26.112-83.302 27.034-114.125 30.208 53.862 139.878 180.685 243.712 333.517 264.806zM380.16 62.976c25.19 13.261 27.75 30.464 50.586 31.386 26.112 1.126 47.36 10.189 76.749 16.64 26.163 5.683 72.858 32.205 114.074 35.584 34.662 2.867 103.168-1.792 121.6-35.277-66.355-44.032-145.818-69.734-231.168-69.734-46.080 0-90.368 7.578-131.84 21.402z" />
<glyph unicode="&#xe655;" d="M952.32 768h-880.64c-39.424 0-71.68-32.256-71.68-71.68v-471.091c0-39.373 32.256-71.629 71.68-71.629h880.64c39.475 0 71.68 32.256 71.68 71.629v471.091c0 39.424-32.256 71.68-71.68 71.68zM563.2 665.6h102.4v-102.4h-102.4v102.4zM716.8 512v-102.4h-102.4v102.4h102.4zM409.6 665.6h102.4v-102.4h-102.4v102.4zM563.2 512v-102.4h-102.4v102.4h102.4zM256 665.6h102.4v-102.4h-102.4v102.4zM409.6 512v-102.4h-102.4v102.4h102.4zM102.4 665.6h102.4v-102.4h-102.4v102.4zM256 512v-102.4h-102.4v102.4h102.4zM204.8 256h-102.4v102.4h102.4v-102.4zM768 256h-512v102.4h512v-102.4zM921.6 256h-102.4v102.4h102.4v-102.4zM768 409.6v102.4h102.4v-102.4h-102.4zM921.6 563.2h-204.8v102.4h204.8v-102.4z" />
<glyph unicode="&#xe656;" d="M921.6 870.4h-819.2c-56.32 0-102.4-46.080-102.4-102.4v-614.4c0-56.371 46.080-102.4 102.4-102.4h819.2c56.32 0 102.4 46.029 102.4 102.4v614.4c0 56.32-46.080 102.4-102.4 102.4zM235.52 774.656c21.248 0 38.4-16.691 38.4-37.325 0-20.685-17.152-37.376-38.4-37.376s-38.4 16.691-38.4 37.325c0 20.685 17.203 37.376 38.4 37.376zM94.72 737.28c0 20.634 17.152 37.325 38.4 37.325s38.4-16.64 38.4-37.325c0-20.685-17.152-37.376-38.4-37.376s-38.4 16.742-38.4 37.376zM922.624 153.6h-821.248v471.040h821.248v-471.040zM922.624 706.56h-615.424v61.44h615.424v-61.44z" />
<glyph unicode="&#xe657;" d="M921.6 921.6h-819.2c-56.32 0-102.4-46.080-102.4-102.4v-614.4c0-56.32 46.080-101.376 102.4-101.376h203.776v100.352h-204.8v472.064h821.248v-472.064h-204.8v-100.403h203.776c56.371 0 102.4 45.107 102.4 101.376v614.451c0 56.32-46.029 102.4-102.4 102.4zM133.171 751.104c-21.248 0-38.4 16.742-38.4 37.376s17.152 37.376 38.4 37.376c21.197 0 38.4-16.742 38.4-37.376s-17.203-37.376-38.4-37.376zM235.571 751.104c-21.248 0-38.4 16.742-38.4 37.376s17.152 37.376 38.4 37.376c21.197 0 38.4-16.742 38.4-37.376s-17.203-37.376-38.4-37.376zM922.675 756.736h-616.499v63.488h616.448v-63.488zM509.338 554.291l-248.422-246.886h153.6v-307.405h189.645v307.405h153.6l-248.422 246.886z" />
<glyph unicode="&#xe658;" d="M921.6 716.8h-819.2c-56.32 0-102.4-46.080-102.4-102.4v-307.2c0-56.32 46.080-102.4 102.4-102.4h819.2c56.371 0 102.4 46.080 102.4 102.4v307.2c0 56.32-46.029 102.4-102.4 102.4zM921.6 307.2h-819.2v307.2h819.2v-307.2zM870.4 562.176h-204.8v-202.701h204.8v202.701zM614.4 562.176h-204.8v-202.701h204.8v202.701zM358.4 562.176h-204.8v-202.701h204.8v202.701z" />
<glyph unicode="&#xe659;" d="M921.6 716.8h-819.2c-56.32 0-102.4-46.080-102.4-102.4v-307.2c0-56.32 46.080-102.4 102.4-102.4h819.2c56.371 0 102.4 46.080 102.4 102.4v307.2c0 56.32-46.029 102.4-102.4 102.4zM921.6 307.2h-819.2v307.2h819.2v-307.2zM614.4 562.176h-204.8v-202.701h204.8v202.701zM358.4 562.176h-204.8v-202.701h204.8v202.701z" />
<glyph unicode="&#xe65a;" d="M921.6 716.8h-819.2c-56.32 0-102.4-46.080-102.4-102.4v-307.2c0-56.32 46.080-102.4 102.4-102.4h819.2c56.371 0 102.4 46.080 102.4 102.4v307.2c0 56.32-46.029 102.4-102.4 102.4zM921.6 307.2h-819.2v307.2h819.2v-307.2zM358.4 562.176h-204.8v-202.701h204.8v202.701z" />
<glyph unicode="&#xe65b;" d="M921.6 716.8h-819.2c-56.32 0-102.4-46.080-102.4-102.4v-307.2c0-56.32 46.080-102.4 102.4-102.4h819.2c56.32 0 102.4 46.080 102.4 102.4v307.2c0 56.32-46.080 102.4-102.4 102.4zM921.6 307.2h-819.2v307.2h819.2v-307.2z" />
<glyph unicode="&#xe65d;" d="M972.8 501.76c-9.318 0-40.909 0-50.176 0-28.262 0-51.2-18.33-51.2-40.96s22.938-40.96 51.2-40.96c9.318 0 40.909 0 50.176 0 28.314 0 51.2 18.33 51.2 40.96s-22.886 40.96-51.2 40.96zM512 742.4c-156.16 0-281.6-125.44-281.6-281.6 0-156.211 125.44-281.6 281.6-281.6 156.211 0 281.6 125.389 281.6 281.6 0 156.16-125.389 281.6-281.6 281.6zM512 256c-113.152 0-204.8 91.648-204.8 204.8 0 113.101 91.648 204.8 204.8 204.8s204.8-91.699 204.8-204.8c0-113.152-91.648-204.8-204.8-204.8zM152.525 460.8c0 22.63-21.862 40.96-50.125 40.96-9.472 0-41.779 0-51.2 0-28.262 0-51.2-18.33-51.2-40.96s22.938-40.96 51.2-40.96c9.421 0 41.728 0 51.2 0 28.262 0 50.125 18.33 50.125 40.96zM512 819.2c22.579 0 40.96 22.938 40.96 51.2 0 9.37 0 41.83 0 51.2 0 28.262-18.33 51.2-40.96 51.2s-40.96-22.938-40.96-51.2c0-9.37 0-41.83 0-51.2 0-28.262 18.381-51.2 40.96-51.2zM512 102.4c-22.579 0-40.96-22.938-40.96-51.2 0-9.37 0-41.83 0-51.2 0-28.314 18.33-51.2 40.96-51.2s40.96 22.886 40.96 51.2c0 9.37 0 41.83 0 51.2 0 28.262-18.381 51.2-40.96 51.2zM889.088 779.981c20.019 20.019 23.245 49.203 7.27 65.178s-45.158 12.749-65.126-7.27c-5.478-5.53-30.31-30.31-35.84-35.84-20.019-20.019-23.245-49.152-7.27-65.126s45.21-12.8 65.178 7.219c5.478 5.53 30.31 30.31 35.789 35.84zM170.701 177.459c-5.53-5.53-30.31-30.362-35.84-35.84-19.968-20.019-23.194-49.152-7.219-65.126 15.974-15.974 45.158-12.749 65.126 7.219 5.53 5.478 30.362 30.31 35.84 35.84 20.019 20.019 23.245 49.152 7.219 65.126s-45.158 12.698-65.126-7.219zM192.819 837.939c-20.019 19.968-49.152 23.245-65.178 7.219s-12.749-45.158 7.219-65.178c5.53-5.53 30.31-30.31 35.84-35.84 20.019-19.968 49.152-23.245 65.126-7.219s12.8 45.158-7.219 65.126c-5.478 5.53-30.259 30.362-35.789 35.891zM795.341 119.501c5.53-5.53 30.362-30.362 35.84-35.84 20.019-19.968 49.203-23.194 65.178-7.219 15.974 15.974 12.698 45.158-7.27 65.126-5.53 5.478-30.362 30.31-35.84 35.84-20.019 19.968-49.203 23.194-65.178 7.219s-12.646-45.107 7.27-65.126z" />
<glyph unicode="&#xe65f;" d="M389.734 754.79c-18.79 17.664-44.186 17.664-63.027 0l-326.707-293.99 326.707-293.939c18.842-17.715 44.237-17.715 63.027 0s18.79 46.387 0 64.102l-253.645 229.837 253.696 229.786c18.739 17.715 18.739 46.438-0.051 64.205zM697.293 754.79c-18.842 17.664-44.186 17.664-63.027 0-18.79-17.766-17.818-46.438 1.075-64.154l252.57-229.837-252.621-229.837c-18.842-17.715-19.866-46.387-1.075-64.102 18.842-17.715 44.186-17.715 63.027 0l326.758 293.939-326.707 293.99z" />
<glyph unicode="&#xe660;" d="M921.6 911.36h-819.2c-56.32 0-102.4-46.080-102.4-102.4v-563.2c0-56.32 45.158-111.462 100.403-122.522l223.846-44.749c0 0-192.666-68.25-68.25-68.25h512c124.416 0-68.25 68.25-68.25 68.25l223.846 44.749c55.194 11.059 100.403 66.202 100.403 122.522v563.2c0 56.32-46.080 102.4-102.4 102.4zM921.6 250.88h-819.2v568.32h819.2v-568.32z" />
<glyph unicode="&#xe661;" d="M814.182 686.080c-106.445 0-223.078-59.29-302.182-149.248-79.104 89.958-195.789 149.248-302.234 149.248-101.427 0-209.766-59.187-209.766-225.28s108.339-225.229 209.766-225.28v0c106.496 0 223.13 59.29 302.234 149.248 79.104-89.958 195.738-149.248 302.182-149.248 101.478 0 209.818 59.187 209.818 225.28s-108.339 225.28-209.818 225.28zM209.766 325.632c-77.414 0-116.685 45.466-116.685 135.168s39.27 135.219 116.685 135.219c85.606 0 185.037-55.603 246.067-135.219-61.030-79.616-160.41-135.168-246.067-135.168zM814.182 325.632c-85.606 0-185.037 55.552-246.067 135.168 60.979 79.616 160.461 135.219 246.067 135.219 77.466 0 116.685-45.517 116.685-135.219s-39.219-135.168-116.685-135.168z" />
<glyph unicode="&#xe662;" d="M367.872-8.704c40.397-26.112 87.194-43.776 144.128-42.394 56.934-1.382 103.68 16.282 144.077 42.394v105.984h-288.205v-105.984zM650.035 158.771c0 223.027 237.107 294.4 219.341 516.557-11.162 140.186-106.138 297.472-357.376 297.472s-346.214-157.286-357.376-297.472c-17.766-222.208 219.29-293.53 219.29-516.557h276.122zM263.066 667.238c10.65 133.069 101.171 200.55 248.934 200.55s238.285-67.482 248.883-200.55c5.786-72.858-36.096-121.446-92.672-201.011-41.626-58.675-90.88-127.949-113.92-218.163h-84.634c-23.040 90.214-72.243 159.437-113.971 218.163-56.525 79.616-98.406 128.154-92.621 201.011z" />
<glyph unicode="&#xe663;" d="M921.6 819.2h-819.2c-56.32 0-102.4-46.080-102.4-102.4v-512c0-56.32 46.080-102.4 102.4-102.4h819.2c56.32 0 102.4 46.080 102.4 102.4v512c0 56.32-46.080 102.4-102.4 102.4zM921.6 204.8h-819.2v307.2h819.2v-307.2zM921.6 665.6h-819.2v51.2h819.2v-51.2zM204.8 404.48v-30.72h30.72v30.72h-30.72zM389.12 343.040v-30.72h61.44v30.72h30.72v30.72h30.72v30.72h-61.44v-30.72h-30.72v-30.72h-30.72zM512 312.32v30.72h-30.72v-30.72h30.72zM358.4 312.32v30.72h-61.44v-30.72h61.44zM389.12 373.76h30.72v30.72h-61.44v-61.44h30.72v30.72zM266.24 343.040h30.72v30.72h30.72v30.72h-61.44v-30.72h-30.72v-30.72h-30.72v-30.72h61.44v30.72z" />
<glyph unicode="&#xe664;" d="M856.422 315.392c-43.213-69.837-180.992-120.883-344.422-120.883-163.328 0-301.21 51.046-344.371 120.883-9.165 14.797-14.029 6.861-14.029-0.461 0-7.373 0-102.502 0-102.502 0-99.277 160.461-202.189 358.4-202.189s358.4 102.912 358.4 202.189c0 0 0 95.13 0 102.502 0 7.322-4.915 15.258-13.978 0.461zM856.934 577.28c-42.445-61.747-180.838-107.008-344.934-107.008s-302.49 45.261-344.934 107.008c-8.806 12.749-13.466 5.837-13.466 0.051 0-5.786 0-120.627 0-120.627 0-90.266 160.461-163.379 358.4-163.379s358.4 73.114 358.4 163.379c0 0 0 114.842 0 120.627 0 5.786-4.71 12.698-13.466-0.051zM512 911.36c-197.939 0-358.4-60.314-358.4-134.758v-64.461c0-78.95 160.461-142.95 358.4-142.95s358.4 64 358.4 142.95v64.41c0 74.496-160.461 134.81-358.4 134.81z" />
<glyph unicode="&#xe666;" d="M798.72 870.4l-61.44-153.6h-450.56l-61.44 153.6c-39.424 0-71.68-32.256-71.68-71.68v-778.24c0-39.424 32.256-71.68 71.68-71.68h573.44c39.475 0 71.68 32.256 71.68 71.68v778.24c0 39.424-32.256 71.68-71.68 71.68zM696.32 768l46.080 102.4h-111.616l-36.864 102.4h-163.84l-36.864-102.4h-111.616l46.080-102.4h368.64z" />
<glyph unicode="&#xe667;" d="M204.8 102.4c0-56.525 45.875-102.4 102.4-102.4 56.576 0 102.4 45.875 102.4 102.4s-45.824 102.4-102.4 102.4c-56.525 0-102.4-45.875-102.4-102.4zM716.8 102.4c0-56.525 45.875-102.4 102.4-102.4 56.576 0 102.4 45.875 102.4 102.4s-45.824 102.4-102.4 102.4c-56.525 0-102.4-45.875-102.4-102.4zM386.406 344.474l566.733 161.894c10.803 3.123 19.661 14.848 19.661 26.112v281.6h-721.92v87.040c0 11.264-9.165 20.48-20.48 20.48h-158.72c-11.264 0-20.48-9.216-20.48-20.48v-81.92h99.482l100.762-463.718 9.728-48.282v-76.8c0-11.264 9.216-20.48 20.429-20.48h670.771c11.213 0 20.429 9.216 20.429 20.48v76.8h-575.898c-58.829 0-60.058 23.040-10.496 37.274z" />
<glyph unicode="&#xe668;" d="M942.080 870.4h-860.16c-16.947 0-30.72-13.773-30.72-30.72v-122.88h921.6v122.88c0 16.947-13.773 30.72-30.72 30.72zM102.4 122.88c0-39.424 32.256-71.68 71.68-71.68h675.84c39.475 0 71.68 32.256 71.68 71.68v542.72h-819.2v-542.72zM358.4 563.2h307.2v-102.4h-307.2v102.4z" />
<glyph unicode="&#xe669;" d="M251.187 381.85l181.862-181.862 333.67 333.67-181.914 181.862-333.619-333.67zM978.176 631.603l-77.414 77.363c-14.797-7.987-31.59-12.595-49.613-12.595-57.19 0-103.578 46.387-103.578 103.629 0 17.971 4.506 34.867 12.595 49.613l-77.414 77.363c-20.224 20.173-53.094 20.173-73.318 0l-563.61-563.661c-20.173-20.173-20.173-53.146 0-73.318l77.414-77.414c14.746 8.038 31.642 12.595 49.562 12.595 57.242 0 103.629-46.336 103.629-103.578 0-17.971-4.557-34.867-12.646-49.613l77.363-77.414c20.173-20.173 53.146-20.173 73.318 0l563.712 563.712c20.122 20.173 20.122 53.146 0 73.318zM433.050 116.787l-265.011 265.062 416.87 416.819 265.011-265.011-416.87-416.87z" />
<glyph unicode="&#xe66a;" d="M102.502 829.491v-121.242c362.803 0 656.896-294.144 656.896-656.947h121.293c0 429.773-348.416 778.189-778.189 778.189zM102.502 586.957v-121.293c228.864 0 414.413-185.498 414.413-414.362h121.19c0 295.782-239.77 535.654-535.603 535.654zM218.726 283.75c-64.154 0-116.224-52.070-116.224-116.275s52.070-116.224 116.224-116.224c64.205 0 116.275 52.019 116.275 116.224s-52.070 116.275-116.275 116.275z" />
<glyph unicode="&#xe66b;" d="M512 256c-56.013 0-101.325-45.875-101.325-102.4s45.312-102.4 101.325-102.4c55.962 0 101.325 45.875 101.325 102.4s-45.363 102.4-101.325 102.4zM296.96 370.79l71.68-72.397c79.155 79.974 207.514 79.974 286.72 0l71.68 72.397c-118.784 120.013-311.347 120.013-430.080 0zM153.6 515.635l71.629-72.397c158.362 159.949 415.078 159.949 573.44 0l71.731 72.397c-197.939 199.936-518.861 199.936-716.8 0zM10.24 660.429l71.68-72.397c237.568 239.923 622.643 239.923 860.16 0l71.68 72.397c-277.094 279.962-726.426 279.962-1003.52 0z" />
<glyph unicode="&#xe66c;" d="M645.171 467.61v453.99c0 28.262-22.938 51.2-51.2 51.2h-174.131c-28.314 0-40.96-22.938-40.96-51.2v-453.99c-85.453-47.053-143.36-137.933-143.36-242.33 0-152.678 123.802-276.48 276.48-276.48s276.48 123.802 276.48 276.48c0 104.397-57.907 195.277-143.309 242.33zM512 51.2c-96.154 0-174.080 77.926-174.080 174.080 0 79.565 53.453 146.432 126.362 167.27v375.45h102.4v-377.498c69.325-22.938 119.45-88.218 119.45-165.222-0.051-96.154-77.978-174.080-174.131-174.080z" />
<glyph unicode="&#xe66d;" d="M202.496 968.038c-0.768 6.349-11.264 6.349-11.981 0-26.163-210.688-159.795-254.106-159.795-400.538 0-90.47 75.878-163.789 165.786-163.789s165.786 73.318 165.786 163.789c0 146.432-133.632 189.85-159.795 400.538zM833.485 968.038c-0.819 6.349-11.213 6.349-11.981 0-26.163-210.688-159.795-254.106-159.795-400.538 0-90.47 75.878-163.789 165.786-163.789s165.786 73.318 165.786 163.789c0 146.432-133.632 189.85-159.795 400.538zM506.010 513.126c-26.163-210.688-159.795-254.054-159.795-400.486 0-90.522 75.878-163.84 165.786-163.84s165.786 73.37 165.786 163.84c0 146.381-133.632 189.798-159.795 400.486-0.768 6.4-11.213 6.4-11.981 0z" />
<glyph unicode="&#xe66e;" d="M921.6 768h-460.8v-256h512v204.8c0 28.262-22.886 51.2-51.2 51.2zM51.2 204.8c0-28.314 12.698-51.2 40.96-51.2h266.24v256h-307.2v-204.8zM460.8 153.6h460.8c28.314 0 51.2 22.886 51.2 51.2v204.8h-512v-256zM51.2 716.8v-204.8h307.2v256h-266.24c-28.262 0-40.96-22.938-40.96-51.2z" />
<glyph unicode="&#xe66f;" d="M35.328 392.602l69.786-17.306 52.531 82.534-99.84 24.73c-24.986 6.246-50.227-8.909-56.422-33.792-6.195-24.781 9.011-49.971 33.946-56.166zM946.227 379.29l-228.506-205.722-268.698 207.923c-5.12 3.994-11.008 6.81-17.306 8.397l-35.789 8.806-52.531-82.483 56.269-13.875 291.738-225.69c8.448-6.605 18.483-9.779 28.57-9.779 11.213 0 22.426 3.994 31.232 11.981l257.382 231.68c19.098 17.203 20.531 46.49 3.328 65.485-17.152 18.995-46.592 20.48-65.69 3.277zM444.621 605.133l250.214-160.205c21.094-13.466 49.152-7.885 63.437 12.646l257.434 370.79c14.592 21.094 9.318 49.92-11.827 64.512s-50.125 9.267-64.768-11.776l-231.834-333.926-251.75 161.178c-10.394 6.656-23.040 8.909-35.174 6.246s-22.63-9.984-29.235-20.429l-383.846-602.573c-13.824-21.606-7.373-50.176 14.336-63.898 7.731-4.915 16.384-7.219 24.934-7.219 15.411 0 30.464 7.578 39.322 21.504l358.758 563.149z" />
<glyph unicode="&#xe670;" d="M459.059 860.262c-197.325-23.45-353.69-179.866-377.139-377.139h377.139v377.139zM566.938 859.494v-432.896c0-28.365-22.989-51.354-51.405-51.354h-432.896c27.699-211.712 208.538-375.194 427.725-375.194 238.387 0 431.718 193.229 431.718 431.718 0 219.187-163.482 400.026-375.142 427.725z" />
<glyph unicode="&#xe671;" d="M870.4 921.6h-112.64c-28.262 0-40.96-22.938-40.96-51.2v-870.4h204.8v870.4c0 28.262-22.886 51.2-51.2 51.2zM563.2 614.4h-112.64c-28.262 0-40.96-22.938-40.96-51.2v-563.2h204.8v563.2c0 28.262-22.886 51.2-51.2 51.2zM256 307.2h-112.64c-28.262 0-40.96-22.886-40.96-51.2v-256h204.8v256c0 28.314-22.938 51.2-51.2 51.2z" />
<glyph unicode="&#xe672;" d="M997.786 850.586l-237.005-386.099c-8.806-14.285-26.010-16.64-38.298-5.171l-114.586 107.315c-12.288 11.469-29.901 9.421-39.219-4.608l-160.922-242.688c-9.267-13.978-27.034-16.179-39.475-4.915l-74.906 68.403c-12.442 11.315-31.181 9.83-41.677-3.226l-235.981-294.298c-10.547-13.158-5.376-23.859 11.366-23.859h986.675v784.64c0.051 16.845-7.168 18.893-15.974 4.506z" />
<glyph unicode="&#xe673;" d="M809.011 563.098h-92.211v71.68c0 148.326-68.301 235.52-204.8 235.52-136.448 0-204.8-87.194-204.8-235.52v-71.68h-102.4c-28.262 0-51.2-33.126-51.2-61.44v-399.36c0-28.16 21.965-58.317 48.742-66.918l61.235-19.814c26.778-8.653 71.731-15.718 99.942-15.718h296.96c28.16 0 73.165 7.066 99.942 15.718l61.235 19.814c26.829 8.602 48.742 38.758 48.742 66.918v399.36c0 28.314-33.126 61.44-61.389 61.44zM409.6 655.258c0 73.984 40.858 112.64 102.4 112.64 61.594 0 102.4-38.656 102.4-112.64v-92.16h-204.8v92.16z" />
<glyph unicode="&#xe674;" d="M808.96 563.2h-92.16v122.88c0 148.326-68.352 235.52-204.8 235.52-136.499 0-204.8-87.194-204.8-235.52v-20.48h102.4v40.96c0 73.984 40.806 112.64 102.4 112.64 61.542 0 102.4-38.656 102.4-112.64v-143.36h-409.6c-28.314 0-51.2-33.126-51.2-61.44v-399.36c0-28.16 21.965-58.266 48.742-66.918l61.235-19.814c26.829-8.602 71.782-15.667 99.942-15.667h296.96c28.211 0 73.165 7.066 99.942 15.718l61.235 19.814c26.778 8.602 48.742 38.707 48.742 66.867v399.36c0 28.314-33.126 61.44-61.44 61.44z" />
<glyph unicode="&#xe675;" d="M564.275 102.4h-411.699v716.8h411.648v-153.6h101.376v153.6c0 56.32-46.029 102.4-102.4 102.4h-409.6c-56.32 0-102.4-46.080-102.4-102.4v-716.8c0-56.32 46.080-102.4 102.4-102.4h409.6c56.371 0 102.4 46.080 102.4 102.4v102.4h-101.325v-102.4zM972.8 435.2l-203.725 199.68v-122.88h-460.8v-153.6h460.8v-122.88l203.725 199.68z" />
<glyph unicode="&#xe676;" d="M870.4 921.6h-460.8c-56.32 0-101.376-46.080-101.376-102.4v-153.6h101.376v153.6h460.8v-716.8h-460.8v102.4h-101.376v-102.4c0-56.32 45.056-102.4 101.376-102.4h460.8c56.32 0 102.4 46.080 102.4 102.4v716.8c0 56.32-46.080 102.4-102.4 102.4zM512 235.52l204.8 199.68-204.8 199.68v-122.88h-460.8v-153.6h460.8v-122.88z" />
<glyph unicode="&#xe677;" d="M424.704 102.4c-22.272 0-43.366 10.394-56.883 28.314l-182.989 241.562c-23.808 31.437-17.613 76.186 13.824 99.994 31.488 23.859 76.186 17.613 99.994-13.824l120.371-158.925 302.694 485.939c20.838 33.434 64.87 43.674 98.355 22.835 33.434-20.787 43.674-64.87 22.784-98.304l-357.53-573.952c-12.442-20.019-33.894-32.563-57.395-33.587-1.075-0.051-2.15-0.051-3.226-0.051z" />
<glyph unicode="&#xe678;" d="M734.669 299.418l-141.21 161.382 141.21 161.382c24.013 24.013 24.013 62.925 0 86.886-24.013 23.962-62.925 23.962-86.886 0l-135.782-155.187-135.731 155.136c-24.013 24.013-62.925 24.013-86.886 0-23.962-24.013-23.962-62.925 0-86.886l141.158-161.331-141.21-161.382c-23.962-24.013-23.962-62.822 0-86.784 24.013-24.013 62.925-24.013 86.886 0l135.782 155.085 135.731-155.085c24.013-24.013 62.925-24.013 86.886 0s24.013 62.771 0.051 86.784z" />
<glyph unicode="&#xe679;" d="M819.2 870.4h-614.4c-56.32 0-102.4-46.080-102.4-102.4v-614.4c0-56.32 46.080-102.4 102.4-102.4h614.4c56.32 0 102.4 46.080 102.4 102.4v614.4c0 56.32-46.080 102.4-102.4 102.4zM768 409.6h-512v102.4h512v-102.4z" />
<glyph unicode="&#xe67a;" d="M819.2 870.4h-614.4c-56.32 0-102.4-46.080-102.4-102.4v-614.4c0-56.32 46.080-102.4 102.4-102.4h614.4c56.32 0 102.4 46.080 102.4 102.4v614.4c0 56.32-46.080 102.4-102.4 102.4zM768 409.6h-204.8v-204.8h-102.4v204.8h-204.8v102.4h204.8v204.8h102.4v-204.8h204.8v-102.4z" />
<glyph unicode="&#xe67b;" d="M819.2 870.4h-614.4c-56.32 0-102.4-46.080-102.4-102.4v-614.4c0-56.32 46.080-102.4 102.4-102.4h614.4c56.32 0 102.4 46.080 102.4 102.4v614.4c0 56.32-46.080 102.4-102.4 102.4zM668.723 215.603l-156.723 156.672-156.723-156.723-88.474 88.525 156.672 156.723-156.672 156.672 88.474 88.525 156.723-156.672 156.672 156.672 88.525-88.474-156.672-156.723 156.723-156.723-88.525-88.474z" />
<glyph unicode="&#xe67c;" d="M512 890.88c-237.568 0-430.080-192.614-430.080-430.080 0-237.568 192.563-430.080 430.080-430.080 237.517 0 430.080 192.563 430.080 430.080 0 237.517-192.563 430.080-430.080 430.080zM770.56 513.126v-104.704h-517.12v104.704h517.12z" />
<glyph unicode="&#xe67d;" d="M512 890.88c-237.568 0-430.080-192.614-430.080-430.080 0-237.568 192.563-430.080 430.080-430.080 237.517 0 430.080 192.563 430.080 430.080 0 237.517-192.563 430.080-430.080 430.080zM564.326 408.474v-206.182h-104.653v206.182h-206.234v104.653h206.182v206.234h104.704v-206.182h206.182v-104.704h-206.182z" />
<glyph unicode="&#xe67e;" d="M512 890.88c-237.568 0-430.080-192.614-430.080-430.080 0-237.568 192.563-430.080 430.080-430.080 237.517 0 430.080 192.563 430.080 430.080 0 237.517-192.563 430.080-430.080 430.080zM600.525 460.8l156.723-156.723-88.525-88.525-156.723 156.723-156.723-156.723-88.474 88.525 156.672 156.723-156.672 156.672 88.474 88.525 156.723-156.672 156.723 156.672 88.525-88.474-156.723-156.723z" />
<glyph unicode="&#xe67f;" d="M778.189 512h-532.429c-28.314 0-30.72-22.938-30.72-51.2s2.406-51.2 30.72-51.2h532.429c28.314 0 30.771 22.938 30.771 51.2s-2.458 51.2-30.771 51.2z" />
<glyph unicode="&#xe680;" d="M778.189 512h-215.040v215.040c0 28.262-22.886 30.72-51.2 30.72-28.262 0-51.2-2.406-51.2-30.72v-215.040h-214.989c-28.314 0-30.72-22.938-30.72-51.2s2.406-51.2 30.72-51.2h214.989v-215.040c0-28.262 22.938-30.72 51.2-30.72 28.314 0 51.2 2.458 51.2 30.72v215.040h215.040c28.314 0 30.771 22.938 30.771 51.2s-2.458 51.2-30.771 51.2z" />
<glyph unicode="&#xe681;" d="M921.6 819.2h-489.165c-22.528 0-54.835-12.134-71.782-26.982l-347.955-304.435c-16.947-14.848-16.947-39.117 0-53.965l347.955-304.486c16.947-14.797 49.254-26.931 71.782-26.931h489.165c56.371 0 102.4 46.080 102.4 102.4v512c0 56.32-46.029 102.4-102.4 102.4zM777.779 256l-130.918 130.918-130.816-130.918-73.933 73.882 130.867 130.918-130.867 130.867 73.933 73.933 130.867-130.867 130.867 130.867 73.882-73.933-130.816-130.867 130.867-130.867-73.933-73.933z" />
<glyph unicode="&#xe682;" d="M512 952.32c-271.462 0-491.52-220.058-491.52-491.52s220.058-491.52 491.52-491.52c271.514 0 491.52 220.058 491.52 491.52s-220.006 491.52-491.52 491.52zM776.499 725.197l-0.102 0.102c0-0.051 0.102-0.102 0.102-0.102zM138.035 460.8c0 206.541 167.424 373.965 373.965 373.965 89.805 0 172.237-31.642 236.749-84.378l-526.285-526.234c-52.787 64.461-84.429 146.842-84.429 236.646zM247.501 196.403l0.102-0.102c-0.051 0.051-0.051 0.051-0.102 0.102zM512 86.784c-89.805 0-172.186 31.693-236.646 84.429l526.131 526.234c52.787-64.461 84.48-146.842 84.48-236.646 0.051-206.541-167.475-374.016-373.965-374.016z" />
<glyph unicode="&#xe683;" d="M636.518 972.8c68.608 0 102.912-46.797 102.912-100.25 0-66.765-59.597-128.563-137.114-128.563-65.024 0-102.912 38.4-101.12 101.837 0 53.504 45.056 126.976 135.322 126.976zM425.421-51.2c-54.17 0-93.85 33.382-55.962 180.378l62.157 260.659c10.803 41.728 12.595 58.47 0 58.47-16.282 0-86.528-28.826-128.102-57.242l-27.034 45.107c131.738 111.923 283.238 177.51 348.211 177.51 54.118 0 63.078-65.126 36.096-165.325l-71.219-274.022c-12.595-48.435-7.219-65.126 5.376-65.126 16.282 0 69.478 20.122 121.805 61.85l30.72-41.728c-128.051-130.355-267.93-180.531-322.048-180.531z" />
<glyph unicode="&#xe684;" d="M505.702 931.789c-260.096-3.482-468.173-217.19-464.691-477.338 3.482-259.994 217.19-468.122 477.286-464.64 260.096 3.482 468.173 217.19 464.691 477.338-3.43 260.045-217.19 468.122-477.286 464.64zM557.926 774.81c47.872 0 62.003-27.75 62.003-59.546 0-39.68-31.795-76.39-86.016-76.39-45.363 0-66.918 22.835-65.638 60.518 0 31.795 26.624 75.418 89.651 75.418zM435.149 166.4c-32.717 0-56.678 19.866-33.792 107.213l37.53 154.829c6.502 24.832 7.578 34.765 0 34.765-9.779 0-52.275-17.152-77.414-34.048l-16.333 26.778c79.616 66.458 171.162 105.472 210.381 105.472 32.717 0 38.144-38.707 21.811-98.253l-43.008-162.816c-7.578-28.774-4.301-38.707 3.277-38.707 9.779 0 41.984 11.878 73.626 36.762l18.483-24.832c-77.363-77.363-161.792-107.162-194.56-107.162z" />
<glyph unicode="&#xe685;" d="M721.408 858.419c-58.419 42.138-131.686 63.181-219.955 63.181-67.174 0-123.802-14.848-169.83-44.442-73.062-46.387-111.872-125.133-116.582-236.237h169.267c0 32.358 9.421 63.539 28.314 93.542s50.944 45.005 96.154 45.005c45.926 0 77.619-12.186 94.925-36.506 17.357-24.422 26.010-51.405 26.010-80.998 0-25.754-12.902-49.306-28.467-70.758-8.55-12.493-19.866-23.962-33.843-34.509 0 0-91.802-58.88-132.147-106.189-23.398-27.443-25.498-68.506-27.546-127.437-0.154-4.198 1.434-12.851 16.128-12.851s118.63 0 131.686 0 15.77 9.677 15.974 13.926c0.922 21.453 3.328 32.41 7.27 44.8 7.424 23.398 27.494 43.827 50.125 61.389l46.592 32.154c42.035 32.768 75.622 59.648 90.419 80.742 25.293 34.714 43.059 77.414 43.059 128.051 0 82.688-29.235 145.050-87.552 187.136zM498.739 208.691c-58.368 1.741-106.496-38.605-108.339-101.888-1.843-63.232 43.93-105.011 102.298-106.752 60.928-1.792 107.776 37.274 109.619 100.506 1.792 63.283-42.65 106.342-103.578 108.134z" />
<glyph unicode="&#xe686;" d="M505.754 931.789c-260.147-3.482-468.224-217.19-464.742-477.338 3.482-259.994 217.19-468.122 477.338-464.64 260.045 3.482 468.173 217.19 464.64 477.338-3.43 260.045-217.139 468.122-477.235 464.64zM504.371 174.080h-2.611c-40.038 1.178-68.301 30.72-67.174 70.195 1.126 38.758 30.054 66.97 68.813 66.97l2.355-0.051c41.165-1.229 69.12-30.464 67.891-71.066-1.126-38.861-29.645-66.048-69.274-66.048zM672.87 508.518c-9.472-13.363-30.157-30.003-56.269-50.33l-28.774-19.866c-15.77-12.288-25.293-23.808-28.826-35.123-2.867-9.011-4.198-11.315-4.454-29.491l-0.051-4.659h-109.722l0.307 9.318c1.331 38.195 2.304 60.621 18.125 79.206 24.832 29.133 79.616 64.41 81.92 65.894 7.834 5.939 14.438 12.646 19.405 19.814 11.52 15.872 16.589 28.416 16.589 40.653 0 17.050-5.069 32.819-15.053 46.848-9.626 13.568-27.904 20.429-54.323 20.429-26.214 0-44.134-8.346-54.886-25.395-11.11-17.562-16.64-35.942-16.64-54.784v-4.71h-113.152l0.205 4.915c2.918 69.325 27.648 119.194 73.523 148.326 28.774 18.586 64.614 27.955 106.394 27.955 54.733 0 101.018-13.312 137.37-39.526 36.864-26.573 55.552-66.406 55.552-118.323 0-29.082-9.165-56.371-27.238-81.152z" />
<glyph unicode="&#xe687;" d="M999.014 52.122l-456.090 800.307c-6.298 11.059-18.125 17.869-30.925 17.869s-24.576-6.81-30.925-17.869l-456.038-800.307c-6.195-10.854-6.093-24.115 0.256-34.867s18.022-17.357 30.618-17.357h912.128c12.493 0 24.218 6.605 30.618 17.357 6.349 10.752 6.451 24.013 0.358 34.867zM568.32 102.298h-112.64v102.4h112.64v-102.4zM568.32 281.498h-112.64v307.2h112.64v-307.2z" />
<glyph unicode="&#xe688;" d="M282.419 244.531c-115.814 124.57-113.766 319.744 6.502 440.883 49.254 49.562 110.797 79.155 174.797 88.883l-3.533 106.342c-89.805-10.906-176.742-50.995-245.606-120.32-161.229-162.406-163.123-424.448-6.298-590.438l-89.139-89.754 282.112-15.411-0.768 298.701-118.067-118.886zM622.694 856.832l0.768-298.701 118.118 118.938c115.814-124.57 113.818-319.744-6.502-440.883-49.254-49.613-110.797-79.155-174.848-88.883l3.533-106.291c89.856 10.906 176.794 50.995 245.658 120.371 161.178 162.355 163.174 424.448 6.246 590.387l89.139 89.754-282.112 15.309z" />
<glyph unicode="&#xe689;" d="M449.178 880.64c227.635 0 412.723-182.374 418.253-409.344h125.85l-188.365-209.971-188.365 209.971h146.227c-5.478 169.011-143.718 304.384-313.6 304.384-173.363 0-313.856-140.954-313.856-314.88s140.493-314.88 313.856-314.88c69.53 0 133.734 22.733 185.754 61.082l71.936-77.005c-71.014-55.757-160.461-89.037-257.69-89.037-231.117 0-418.458 187.955-418.458 419.84 0 231.885 187.341 419.84 418.458 419.84z" />
<glyph unicode="&#xe68a;" d="M574.771 880.64c-227.584 0-412.672-182.374-418.253-409.344h-125.798l188.365-209.92 188.314 209.92h-146.227c5.53 169.011 143.77 304.384 313.6 304.384 173.414 0 313.907-140.954 313.907-314.88s-140.493-314.88-313.907-314.88c-69.478 0-133.683 22.733-185.702 61.082l-71.987-77.005c71.014-55.757 160.461-89.037 257.69-89.037 231.168 0 418.56 187.955 418.56 419.84-0.051 231.885-187.443 419.84-418.56 419.84z" />
<glyph unicode="&#xe68b;" d="M772.762 630.067h36.198v-103.066l215.040 184.32-215.040 184.32v-122.214h-36.198c-189.082 0-295.731-140.134-389.837-263.782-84.634-111.206-157.696-207.258-275.763-207.258h-107.162v-143.411h107.162c189.133 0 295.731 140.186 389.888 263.834 84.582 111.258 157.645 207.258 275.712 207.258zM277.043 539.75c8.038 10.445 16.179 21.094 24.422 31.898 20.019 26.317 41.165 54.067 64.051 81.715-67.635 63.181-149.248 109.824-258.355 109.824h-107.162v-143.36h107.162c67.942 0 120.986-31.898 169.882-80.077zM808.96 292.198h-36.198c-72.038 0-127.283 35.789-178.688 88.986-5.171-6.707-10.291-13.517-15.514-20.378-22.579-29.594-46.899-61.491-73.677-92.979 69.478-67.789 153.651-118.989 267.878-118.989h36.198v-122.88l215.040 184.32-215.040 184.422v-102.502z" />
<glyph unicode="&#xe68c;" d="M819.302 655.36h-552.96v112.64l-215.040-184.32 215.040-184.32v112.64h512v-215.040h-665.6v-143.36h706.56c56.525 0 102.4 45.875 102.4 102.4v296.96c0 56.576-45.926 102.4-102.4 102.4z" />
<glyph unicode="&#xe68d;" d="M204.902 307.2h414.771v-153.6l245.76 225.28-245.76 225.229v-153.6h-373.76v317.491h-143.411v-358.4c0-56.525 45.824-102.4 102.4-102.4z" />
<glyph unicode="&#xe68e;" d="M254.976 296.96v267.264h103.424l-179.2 203.776-179.2-203.776h103.424v-308.224c0-56.525 45.824-102.4 102.4-102.4h459.776l-131.174 143.36h-279.45zM920.525 357.376v308.224c0 56.525-45.875 102.4-102.4 102.4h-459.725l131.123-143.36h279.501v-267.264h-103.424l179.2-203.776 179.2 203.776h-103.475z" />
<glyph unicode="&#xe68f;" d="M870.4 655.36h-194.56v-143.36h153.6v-215.040h-634.88v215.040h215.040v-112.64l204.8 184.32-204.8 184.32v-112.64h-256c-56.525 0-102.4-45.824-102.4-102.4v-296.96c0-56.525 45.875-102.4 102.4-102.4h716.8c56.576 0 102.4 45.875 102.4 102.4v296.96c0 56.576-45.824 102.4-102.4 102.4z" />
<glyph unicode="&#xe690;" d="M574.822 880.64c-227.635 0-412.723-182.374-418.253-409.344h-125.85l188.365-209.971 188.314 209.971h-146.227c5.53 169.011 143.77 304.384 313.651 304.384 173.363 0 313.856-140.954 313.856-314.88s-140.493-314.88-313.856-314.88c-69.53 0-133.734 22.733-185.754 61.082l-71.987-77.005c71.066-55.757 160.512-89.037 257.741-89.037 231.117 0 418.509 187.955 418.509 419.84-0.051 231.885-187.443 419.84-418.509 419.84zM537.6 686.080v-240.128l153.856-153.856 50.688 50.688-132.864 132.864v210.432h-71.68z" />
<glyph unicode="&#xe691;" d="M246.579 460.8h522.24v-245.76h143.36v286.72c0 56.576-45.875 102.4-102.4 102.4h-563.2v102.4l-204.8-174.080 204.8-163.84v92.16z" />
<glyph unicode="&#xe692;" d="M716.8 706.56h-512v102.4l-204.8-174.080 204.8-163.84v92.16h512v143.36zM1024 276.48l-204.8 174.080v-102.4h-512v-143.36h512v-92.16l204.8 163.84z" />
<glyph unicode="&#xe693;" d="M256 307.2h-51.2c-28.262 0-51.2-22.886-51.2-51.2s22.938-51.2 51.2-51.2h51.2c28.262 0 51.2 22.886 51.2 51.2s-22.938 51.2-51.2 51.2zM256 512h-51.2c-28.262 0-51.2-22.938-51.2-51.2s22.938-51.2 51.2-51.2h51.2c28.262 0 51.2 22.938 51.2 51.2s-22.938 51.2-51.2 51.2zM256 716.8h-51.2c-28.262 0-51.2-22.938-51.2-51.2s22.938-51.2 51.2-51.2h51.2c28.262 0 51.2 22.938 51.2 51.2s-22.938 51.2-51.2 51.2zM460.8 614.4h358.4c28.314 0 51.2 22.938 51.2 51.2s-22.886 51.2-51.2 51.2h-358.4c-28.262 0-51.2-22.938-51.2-51.2s22.938-51.2 51.2-51.2zM819.2 512h-358.4c-28.262 0-51.2-22.938-51.2-51.2s22.938-51.2 51.2-51.2h358.4c28.314 0 51.2 22.938 51.2 51.2s-22.886 51.2-51.2 51.2zM819.2 307.2h-358.4c-28.262 0-51.2-22.886-51.2-51.2s22.938-51.2 51.2-51.2h358.4c28.314 0 51.2 22.886 51.2 51.2s-22.886 51.2-51.2 51.2z" />
<glyph unicode="&#xe694;" d="M358.4 512h-307.2c-28.262 0-51.2-22.938-51.2-51.2s22.938-51.2 51.2-51.2h307.2c28.262 0 51.2 22.938 51.2 51.2s-22.938 51.2-51.2 51.2zM358.4 307.2h-307.2c-28.262 0-51.2-22.886-51.2-51.2s22.938-51.2 51.2-51.2h307.2c28.262 0 51.2 22.886 51.2 51.2s-22.938 51.2-51.2 51.2zM993.28 512h-174.080v174.080c0 28.262-22.886 30.72-51.2 30.72s-51.2-2.458-51.2-30.72v-174.080h-168.96c-28.314 0-30.72-22.938-30.72-51.2s2.458-51.2 30.771-51.2h168.909v-174.080c0-28.262 22.886-30.72 51.2-30.72s51.2 2.458 51.2 30.72v174.080h174.080c28.262 0 30.72 22.938 30.72 51.2s-2.458 51.2-30.72 51.2zM358.4 716.8h-307.2c-28.262 0-51.2-22.938-51.2-51.2s22.938-51.2 51.2-51.2h307.2c28.262 0 51.2 22.938 51.2 51.2s-22.938 51.2-51.2 51.2z" />
<glyph unicode="&#xe695;" d="M378.88 768h-92.16c-56.32 0-81.92-25.6-81.92-81.92v-92.16c0-56.32 25.6-81.92 81.92-81.92h92.16c56.32 0 81.92 25.6 81.92 81.92v92.16c0 56.32-25.6 81.92-81.92 81.92zM737.28 768h-92.16c-56.32 0-81.92-25.6-81.92-81.92v-92.16c0-56.32 25.6-81.92 81.92-81.92h92.16c56.32 0 81.92 25.6 81.92 81.92v92.16c0 56.32-25.6 81.92-81.92 81.92zM378.88 409.6h-92.16c-56.32 0-81.92-25.6-81.92-81.92v-92.16c0-56.32 25.6-81.92 81.92-81.92h92.16c56.32 0 81.92 25.6 81.92 81.92v92.16c0 56.32-25.6 81.92-81.92 81.92zM737.28 409.6h-92.16c-56.32 0-81.92-25.6-81.92-81.92v-92.16c0-56.32 25.6-81.92 81.92-81.92h92.16c56.32 0 81.92 25.6 81.92 81.92v92.16c0 56.32-25.6 81.92-81.92 81.92z" />
<glyph unicode="&#xe696;" d="M819.2 512h-614.4c-28.262 0-51.2-22.938-51.2-51.2s22.938-51.2 51.2-51.2h614.4c28.314 0 51.2 22.938 51.2 51.2s-22.886 51.2-51.2 51.2zM204.8 614.4h614.4c28.314 0 51.2 22.938 51.2 51.2s-22.886 51.2-51.2 51.2h-614.4c-28.262 0-51.2-22.938-51.2-51.2s22.938-51.2 51.2-51.2zM819.2 307.2h-614.4c-28.262 0-51.2-22.886-51.2-51.2s22.938-51.2 51.2-51.2h614.4c28.314 0 51.2 22.886 51.2 51.2s-22.886 51.2-51.2 51.2z" />
<glyph unicode="&#xe697;" d="M369.818 416.256h286.72v92.16h-286.72v-92.16zM768 921.6h-512c-56.32 0-102.4-46.080-102.4-102.4v-716.8c0-56.32 46.080-102.4 102.4-102.4h512c56.32 0 102.4 46.080 102.4 102.4v716.8c0 56.32-46.080 102.4-102.4 102.4zM768 102.4h-512v716.8h512v-716.8zM655.36 708.147h-286.72v-89.6h286.72v89.6zM655.36 306.176h-286.72v-89.6h286.72v89.6z" />
<glyph unicode="&#xe698;" d="M768 921.6h-512c-56.32 0-102.4-46.080-102.4-102.4v-716.8c0-56.32 46.080-102.4 102.4-102.4h512c56.32 0 102.4 46.080 102.4 102.4v716.8c0 56.32-46.080 102.4-102.4 102.4zM297.574 708.147h428.8v-89.6h-428.8v89.6zM726.374 216.576h-428.8v89.6h428.8v-89.6zM727.603 416.256h-428.8v92.16h428.8v-92.16z" />
<glyph unicode="&#xe699;" d="M768 921.6h-512c-56.32 0-102.4-46.080-102.4-102.4v-716.8c0-56.32 46.080-102.4 102.4-102.4h512c56.32 0 102.4 46.080 102.4 102.4v716.8c0 56.32-46.080 102.4-102.4 102.4zM768 102.4h-512v716.8h512v-716.8z" />
<glyph unicode="&#xe69a;" d="M993.178 593.203l-381.184 102.093-66.714 248.934c-5.581 20.787-27.853 32.922-49.766 27.034l-464.64-124.467c-21.914-5.837-35.123-27.494-29.594-48.282l165.325-617.062c5.581-20.787 27.853-32.922 49.715-27.034l184.986 49.562-25.242-94.106c-5.581-20.838 7.629-42.445 29.542-48.333l415.232-111.258c21.914-5.837 44.186 6.246 49.766 27.034l152.115 567.603c5.581 20.787-7.629 42.445-29.542 48.282zM83.661 786.842l400.845 107.315 148.429-553.882-400.896-107.315-148.378 553.882zM802.765 27.392l-348.928 95.437 27.443 102.554 199.731 53.504c21.914 5.888 35.174 27.494 29.594 48.333l-77.21 288.102 304.435-83.507-135.066-504.422z" />
<glyph unicode="&#xe69b;" d="M0 716.8v-512c0-56.32 46.080-102.4 102.4-102.4h819.2c56.32 0 102.4 46.080 102.4 102.4v512c0 56.32-46.080 102.4-102.4 102.4h-819.2c-56.32 0-102.4-46.080-102.4-102.4zM921.6 716.8v-512h-819.2v512h819.2z" />
<glyph unicode="&#xe69c;" d="M876.8 605.542l-104.755 288.563c-7.731 21.299-30.464 32.563-50.637 25.19l-696.166-254.106c-20.224-7.322-30.413-30.566-22.682-51.866l110.438-304.23v163.072c0 73.574 58.778 133.376 131.123 133.376h183.962l219.392 154.010 126.976-154.010h102.349zM984.986 513.178h-740.864c-21.504 0-39.014-18.381-39.014-41.062v-482.355c0-22.63 17.459-41.062 39.014-41.062h740.864c21.555 0 39.014 18.381 39.014 41.062v482.406c0 22.63-17.459 41.011-39.014 41.011zM928.461 51.354h-614.144v88.013l94.464 219.904 141.773-175.974 132.966 136.294 170.957 61.696 73.984-164.966v-164.966z" />
<glyph unicode="&#xe69d;" d="M1013.76 716.8v61.44c0 22.63-18.381 40.96-40.96 40.96h-921.6c-22.63 0-40.96-18.33-40.96-40.96v-61.44h102.4v-102.4h-102.4v-102.4h102.4v-102.4h-102.4v-102.4h102.4v-102.4h-102.4v-61.44c0-22.63 18.33-40.96 40.96-40.96h921.6c22.579 0 40.96 18.33 40.96 40.96v61.44h-102.4v102.4h102.4v102.4h-102.4v102.4h102.4v102.4h-102.4v102.4h102.4zM399.36 307.2v307.2l256-153.6-256-153.6z" />
<glyph unicode="&#xe69e;" d="M768 921.6h-512c-56.32 0-102.4-46.080-102.4-102.4v-716.8c0-56.32 46.080-102.4 102.4-102.4h512c56.371 0 102.4 46.080 102.4 102.4v716.8c0 56.32-46.029 102.4-102.4 102.4zM655.155 434.125c-12.134-18.944-18.586-10.854-14.95 0 9.626 28.57 9.267 115.046-71.27 127.693v-266.906c0-49.766-28.672-80.998-89.6-100.557-59.187-18.944-125.44 0.768-140.954 43.315-15.462 42.496 19.354 94.208 77.773 115.507 32.614 11.827 65.69 11.725 91.187 1.843v376.525h61.594c0-64.666 173.107-162.253 86.221-297.421z" />
<glyph unicode="&#xe69f;" d="M976.384 614.4h-928.768c-47.104 0-49.51-22.938-46.899-50.995l42.24-461.21c2.56-28.058 9.216-50.995 56.269-50.995h825.6c48.026 0 53.709 22.938 56.269 50.995l42.24 461.21c2.509 28.058 0.205 50.995-46.95 50.995zM942.285 727.040c-5.632 22.528-33.536 40.96-61.901 40.96h-348.877c-28.416 0-68.045 16.23-88.166 36.147l-30.515 30.106c-20.070 19.917-59.75 36.147-88.115 36.147h-166.707c-28.365 0-54.17-22.886-57.293-50.893l-14.95-133.427h866.867l-10.342 40.96z" />
<glyph unicode="&#xe6a0;" d="M868.762 716.8c0 51.2-50.944 51.2-50.944 51.2h-611.635c0 0-50.944 0-50.944-51.2v-51.2h713.523v51.2zM715.827 870.4h-407.706c0 0-50.944 0-50.944-51.2h509.645c0 51.2-50.995 51.2-50.995 51.2zM970.65 665.6c-30.157 30.31-30.157 30.31-30.157 30.31v-81.51h-857.037v81.51c0 0 0 0-30.157-30.31s-51.763-38.451-39.578-102.451c12.032-63.744 70.554-413.44 79.206-460.749 9.574-51.917 62.31-51.2 62.31-51.2h713.523c0 0 52.736-0.717 62.31 51.2 8.704 47.309 67.174 397.005 79.258 460.749 12.134 64-9.472 72.141-39.68 102.451zM715.827 389.12c0 0 0-51.2-50.995-51.2h-305.715c-50.944 0-50.944 51.2-50.944 51.2v102.4h71.373v-81.92h264.858v81.92h71.475v-102.4z" />
<glyph unicode="&#xe6a1;" d="M173.517 567.706l56.422-497.101c3.021-23.603 116.992-101.222 282.061-101.325 165.069 0.102 279.091 77.722 282.112 101.325l56.422 497.101c-86.221-48.23-215.091-71.066-338.534-71.066s-252.314 22.835-338.483 71.066zM674.15 874.906l-43.981 48.794c-16.947 24.115-35.379 28.621-71.27 28.621h-93.798c-35.84 0-54.272-4.506-71.27-28.621l-43.93-48.794c-131.584-22.989-227.021-83.968-227.021-128.922v-8.755c0-79.155 174.182-143.36 389.12-143.36s389.12 64.205 389.12 143.36v8.755c0 44.954-95.386 105.933-226.97 128.922zM617.933 760.883l-64.102 68.557h-83.661l-64.102-68.557h-87.040c0 0 95.334 113.664 108.083 129.075 9.728 11.776 19.712 16.282 32.614 16.282h104.602c12.902 0 22.835-4.506 32.614-16.282 12.698-15.411 108.083-129.075 108.083-129.075h-87.091z" />
<glyph unicode="&#xe6a2;" d="M512 870.298l-266.24-249.856h168.96v-262.144h194.56v262.144h169.011l-266.291 249.856zM990.208 279.347l-163.021 109.67h-100.506l174.080-133.53h-181.504c-5.222 0-9.882-2.662-12.288-6.81l-41.779-114.432h-306.381l-41.83 114.432c-2.304 4.147-7.066 6.81-12.288 6.81h-181.453l174.131 133.53h-100.557l-162.97-109.67c-24.269-14.49-38.758-47.923-32.256-74.189l28.723-157.389c6.502-26.317 35.379-47.872 64.051-47.872h835.226c28.774 0 57.6 21.555 64.102 47.872l28.723 157.389c6.605 26.317-7.936 59.699-32.205 74.189z" />
<glyph unicode="&#xe6a3;" d="M990.208 279.347l-163.021 109.67h-100.506l174.080-133.53h-181.504c-5.222 0-9.882-2.662-12.288-6.81l-41.779-114.432h-306.381l-41.83 114.432c-2.304 4.147-7.066 6.81-12.288 6.81h-181.453l174.131 133.53h-100.557l-162.97-109.67c-24.269-14.49-38.758-47.923-32.256-74.189l28.723-157.389c6.502-26.317 35.379-47.872 64.051-47.872h835.226c28.774 0 57.6 21.555 64.102 47.872l28.723 157.389c6.605 26.317-7.936 59.699-32.205 74.189zM778.291 608.154h-169.011v262.144h-194.56v-262.144h-168.96l266.24-249.856 266.291 249.856z" />
<glyph unicode="&#xe6a4;" d="M776.806 870.4h-572.006c-56.32 0-102.4-46.080-102.4-102.4v-614.4c0-56.32 46.080-102.4 102.4-102.4h614.4c56.32 0 102.4 46.080 102.4 102.4v556.698l-144.794 160.102zM716.8 563.2c0-28.16-23.040-51.2-51.2-51.2h-307.2c-28.16 0-51.2 23.040-51.2 51.2v256h409.6v-256zM665.6 768h-102.4v-204.8h102.4v204.8z" />
<glyph unicode="&#xe6a5;" d="M956.621 389.222l-161.178 383.59c-12.698 25.6-46.49 46.541-75.11 46.541h-104.909l19.456-208.128h138.24l-261.12-216.576-261.12 216.576h138.24l19.456 208.077h-104.858c-28.57 0-62.362-20.941-75.11-46.541l-161.178-383.59c-12.8-25.6-19.354-69.632-14.694-97.894l34.816-188.723c4.71-28.211 31.898-51.302 60.467-51.302h728.013c28.621 0 55.808 23.091 60.518 51.302l34.816 188.723c4.608 28.262-1.946 72.346-14.746 97.946zM886.784 254.771l-13.21-76.902c-3.994-29.542-30.618-53.709-59.085-53.709h-604.979c-28.518 0-55.142 24.166-59.085 53.709l-13.261 76.902c-3.942 29.542 16.179 53.709 44.698 53.709h660.275c28.57-0.051 48.64-24.166 44.646-53.709z" />
<glyph unicode="&#xe6a6;" d="M778.906 581.683c-14.080 0-27.955-1.229-41.421-3.482-33.587 109.824-137.626 189.85-260.915 189.85-150.426 0-272.333-119.194-272.333-266.24 0-13.107 1.024-26.010 2.918-38.656-7.219 0.819-14.49 1.382-21.965 1.382-102.246 0-185.19-81.101-185.19-181.043 0-99.994 82.944-181.043 185.19-181.043h593.715c135.424 0 245.094 107.315 245.094 239.616 0 132.352-109.722 239.616-245.094 239.616z" />
<glyph unicode="&#xe6a7;" d="M778.906 581.683c-14.080 0-27.955-1.229-41.421-3.482-33.587 109.824-137.626 189.85-260.915 189.85-150.426 0-272.333-119.194-272.333-266.24 0-13.107 1.024-26.010 2.918-38.656-7.219 0.819-14.49 1.382-21.965 1.382-102.246 0-185.19-81.101-185.19-181.043 0-99.994 82.944-181.043 185.19-181.043h255.13v194.56h-107.52l179.2 235.52 179.2-235.52h-107.52v-194.56h195.174c135.424 0 245.094 107.315 245.094 239.616 0.051 132.352-109.67 239.616-245.043 239.616z" />
<glyph unicode="&#xe6a8;" d="M645.12 921.6h-276.48c-28.314 0-40.96-22.938-40.96-51.2v-870.4l184.32 184.32 184.32-184.32v870.4c0 28.262-22.938 51.2-51.2 51.2z" />
<glyph unicode="&#xe6a9;" d="M742.4 972.8h-215.040c-28.262 0-40.96-22.938-40.96-51.2h102.4c28.314 0 51.2-22.938 51.2-51.2v-634.88l153.6-184.32v870.4c0 28.262-22.886 51.2-51.2 51.2zM486.4 819.2h-215.040c-28.262 0-40.96-22.938-40.96-51.2v-819.2l153.6 184.32 153.6-184.32v819.2c0 28.262-22.886 51.2-51.2 51.2z" />
<glyph unicode="&#xe6aa;" d="M399.36 344.525l-204.8 81.971v-69.325l204.8-81.971v69.325zM399.36 557.261l-204.8 81.92v-69.325l204.8-81.92v69.325zM950.323 912.794c-14.029 9.523-31.949 11.469-47.718 5.171l-390.605-156.262-390.605 156.262c-15.77 6.298-33.638 4.352-47.718-5.171-14.029-9.523-22.477-25.395-22.477-42.394v-655.36c0-20.941 12.749-39.731 32.154-47.565l408.73-163.482c0 0 8.397-2.714 9.933-3.021 3.328-0.614 6.656-0.973 9.984-0.973 3.277 0 6.656 0.358 9.933 1.024 1.536 0.307 9.933 3.072 9.933 3.072l408.678 163.43c19.507 7.782 32.256 26.573 32.256 47.514v655.36c0 16.998-8.448 32.87-22.477 42.394zM460.8 104.755l-327.68 131.072v573.85l327.68-131.123v-573.798zM890.88 235.776l-327.68-131.072v573.85l327.68 131.123v-573.901zM829.44 426.496l-204.851-81.971v-69.325l204.851 81.971v69.325zM829.44 639.181l-204.851-81.92v-69.325l204.851 81.92v69.325z" />
<glyph unicode="&#xe6ab;" d="M854.938 487.066l-438.323 271.565c-31.949 20.941-58.061 5.478-58.061-34.304v-527.155c0-39.782 26.163-55.194 58.061-34.253l438.374 271.565c0 0 15.565 10.957 15.565 26.317-0.051 15.309-15.616 26.266-15.616 26.266z" />
<glyph unicode="&#xe6ac;" d="M691.2 819.2c-50.893 0-92.16-15.667-92.16-66.56v-583.68c0-50.893 41.267-66.56 92.16-66.56s92.16 15.667 92.16 66.56v583.68c0 50.893-41.267 66.56-92.16 66.56zM332.8 819.2c-50.893 0-92.16-15.667-92.16-66.56v-583.68c0-50.893 41.267-66.56 92.16-66.56s92.16 15.667 92.16 66.56v583.68c0 50.893-41.267 66.56-92.16 66.56z" />
<glyph unicode="&#xe6ad;" d="M512 819.2c-197.939 0-358.4-160.461-358.4-358.4s160.461-358.4 358.4-358.4c197.888 0 358.4 160.461 358.4 358.4 0 197.939-160.512 358.4-358.4 358.4z" />
<glyph unicode="&#xe6ae;" d="M742.4 768h-460.8c-50.893 0-76.8-15.667-76.8-66.56v-481.28c0-50.893 25.907-66.56 76.8-66.56h460.8c50.893 0 76.8 15.667 76.8 66.56v481.28c0 50.893-25.907 66.56-76.8 66.56z" />
<glyph unicode="&#xe6af;" d="M938.035 485.325l-382.054 253.44c-29.338 19.558-53.402 5.171-53.402-31.949v-491.981c0-37.171 24.064-51.558 53.402-31.949l382.054 253.389c0 0 14.285 10.24 14.285 24.525s-14.285 24.525-14.285 24.525zM473.395 485.325l-368.845 253.491c-29.286 19.507-53.299 5.12-53.299-32v-491.981c0-37.171 24.013-51.558 53.35-31.949l368.845 253.389c0 0 14.285 10.24 14.285 24.525s-14.336 24.525-14.336 24.525z" />
<glyph unicode="&#xe6b0;" d="M71.629 460.8c0-14.285 14.285-24.525 14.285-24.525l382.106-253.389c29.286-19.61 53.35-5.222 53.35 31.949v491.981c0 37.171-24.064 51.507-53.35 32l-382.106-253.44c0.051-0.051-14.285-10.291-14.285-24.576zM536.32 460.8c0-14.285 14.285-24.525 14.285-24.525l368.794-253.389c29.338-19.61 53.35-5.222 53.35 31.949v491.981c0 37.171-24.013 51.507-53.35 32l-368.794-253.44c0-0.051-14.285-10.291-14.285-24.576z" />
<glyph unicode="&#xe6b1;" d="M383.232 460.8c0-13.21 13.414-22.63 13.414-22.63l372.48-233.933c27.597-18.074 50.074-4.762 50.074 29.44v454.246c0 34.253-22.477 47.565-50.074 29.491l-372.48-233.984c0-0.051-13.414-9.421-13.414-22.63zM204.8 698.522v-475.443c0-45.466 31.334-59.392 76.8-59.392s76.8 13.926 76.8 59.341v475.494c0 45.517-31.334 59.443-76.8 59.443s-76.8-13.978-76.8-59.443z" />
<glyph unicode="&#xe6b2;" d="M627.354 483.43l-372.48 233.984c-27.546 18.022-50.074 4.762-50.074-29.542v-454.195c0-34.304 22.528-47.514 50.074-29.491l372.48 233.933c0 0 13.466 9.472 13.466 22.63s-13.466 22.682-13.466 22.682zM742.4 757.965c-45.466 0-76.8-13.978-76.8-59.443v-475.443c0-45.517 31.334-59.494 76.8-59.494s76.8 13.978 76.8 59.494v475.443c0 45.466-31.334 59.443-76.8 59.443z" />
<glyph unicode="&#xe6b3;" d="M594.586 864.666l123.085-99.635-155.136-150.016 102.4-102.4 150.118 155.238 101.99-125.798v322.611h-322.458zM357.786 410.214l-150.067-155.136-100.864 124.467v-322.56h322.56l-124.467 100.813 155.187 150.067-102.349 102.349z" />
<glyph unicode="&#xe6b4;" d="M209.92 250.88l-158.72-148.48 102.4-102.4 148.48 158.72 102.4-107.52v302.080h-302.080l107.52-102.4zM972.8 819.2l-102.4 102.4-148.48-158.72-102.4 107.52v-302.080h302.080l-107.52 102.4 158.72 148.48z" />
<glyph unicode="&#xe6b5;" d="M971.11 284.774c0-45.107-36.915-81.92-81.971-81.92h-798.72c-45.056 0-50.33 18.893-11.674 42.086l822.067 463.565c38.656 23.194 70.298 5.274 70.298-39.782v-383.949z" />
</font>
</defs>
</svg>
